<?xml version="1.0" standalone="no"?>
<!DOCTYPE svg PUBLIC "-//W3C//DTD SVG 1.1//EN" "http://www.w3.org/Graphics/SVG/1.1/DTD/svg11.dtd" >
<svg xmlns="http://www.w3.org/2000/svg" xmlns:xlink="http://www.w3.org/1999/xlink" version="1.1">
<metadata>
Created by FontForge 20170731 at Thu Mar 18 16:07:24 2021
 By Aleksey,,,
Copyright 2021 Dinamo (Johannes Breyer, Fabian Harb). All rights reserved.
</metadata>
<defs>
<font id="ABCArizonaMixVariableTrial-Regular" horiz-adv-x="631" >
  <font-face 
    font-family="ABC Arizona Mix Variable Trial"
    font-weight="400"
    font-stretch="normal"
    units-per-em="1000"
    panose-1="2 0 0 4 0 2 0 6 0 3"
    ascent="786"
    descent="-214"
    x-height="473"
    cap-height="695"
    bbox="-56 -255 978 922"
    underline-thickness="50"
    underline-position="-150"
    unicode-range="U+0020-F8FF"
  />
<missing-glyph horiz-adv-x="634" 
d="M86 0v710h462v-710h-462zM140 53h354v605h-354v-605z" />
    <glyph glyph-name=".notdef" horiz-adv-x="634" 
d="M86 0v710h462v-710h-462zM140 53h354v605h-354v-605z" />
    <glyph glyph-name=".null" horiz-adv-x="0" 
 />
    <glyph glyph-name="nonmarkingreturn" horiz-adv-x="333" 
 />
    <glyph glyph-name="space" unicode=" " horiz-adv-x="245" 
 />
    <glyph glyph-name="exclam" unicode="!" horiz-adv-x="268" 
d="M111 191l-28 504h102l-28 -504h-46zM135 -12q-27 0 -46.5 19.5t-19.5 46.5t19.5 46.5t46.5 19.5t46.5 -19.5t19.5 -46.5t-19.5 -46.5t-46.5 -19.5z" />
    <glyph glyph-name="quotedbl" unicode="&#x22;" horiz-adv-x="359" 
d="M82 420l-31 275h96l-30 -275h-35zM243 420l-31 275h96l-30 -275h-35z" />
    <glyph glyph-name="quotesingle" unicode="'" horiz-adv-x="198" 
d="M82 420l-31 275h96l-30 -275h-35z" />
    <glyph glyph-name="parenleft" unicode="(" horiz-adv-x="309" 
d="M256 -156q-109 107 -161 221.5t-52 251.5t52 251.5t161 221.5l25 -21q-71 -87 -107.5 -200.5t-36.5 -251.5t36.5 -251.5t107.5 -200.5z" />
    <glyph glyph-name="parenright" unicode=")" horiz-adv-x="308" 
d="M52 788q109 -107 161 -221.5t52 -251.5t-52 -251.5t-161 -221.5l-25 21q71 87 107.5 200.5t36.5 251.5t-36.5 251.5t-107.5 200.5z" />
    <glyph glyph-name="plus" unicode="+" horiz-adv-x="566" 
d="M256 5v463h54v-463h-54zM57 211v52h452v-52h-452z" />
    <glyph glyph-name="comma" unicode="," horiz-adv-x="244" 
d="M50 -159l101 172l15 -10q-18 -15 -43 -15q-29 0 -49 18.5t-20 46.5q0 29 19 48t47 19q30 0 50.5 -21.5t20.5 -53.5q0 -18 -5.5 -35t-18.5 -40l-2 -3l-71 -126h-44z" />
    <glyph glyph-name="hyphen" unicode="-" horiz-adv-x="393" 
d="M331 270v56h-269v-56h269z" />
    <glyph glyph-name="period" unicode="." horiz-adv-x="235" 
d="M118 -12q-27 0 -46.5 19.5t-19.5 46.5t19.5 46.5t46.5 19.5t46.5 -19.5t19.5 -46.5t-19.5 -46.5t-46.5 -19.5z" />
    <glyph glyph-name="zero" unicode="0" horiz-adv-x="598" 
d="M299 -12q-72 0 -128 44t-86.5 124t-30.5 184t31 184t86.5 124t127.5 44t128 -44t87 -124t31 -184t-31 -184t-87 -124t-128 -44zM299 41q46 0 78 35t49 102t17 162t-17 162.5t-49.5 102.5t-77.5 35t-77 -35t-49 -102.5t-17 -162.5q0 -96 16.5 -163t48.5 -101.5t78 -34.5z
" />
    <glyph glyph-name="one" unicode="1" horiz-adv-x="363" 
d="M165 0v507h-138v40q82 6 122 35.5t47 97.5h57v-680h-88z" />
    <glyph glyph-name="two" unicode="2" horiz-adv-x="519" 
d="M466 0h-427v45l172 169q52 51 82.5 87.5t49 78t18.5 89.5q0 46 -20.5 80.5t-56.5 52.5t-81 18q-46 0 -80 -15.5t-61 -39.5l-23 23q37 51 88.5 77.5t112.5 26.5q63 0 113 -25t78 -70t28 -103q0 -52 -22 -99t-58 -88.5t-93 -96.5l-123 -117v-6h303v-87z" />
    <glyph glyph-name="three" unicode="3" horiz-adv-x="544" 
d="M251 -12q-69 0 -123.5 31.5t-92.5 86.5l24 24q33 -34 72.5 -52t91.5 -18q48 0 85.5 18.5t58.5 52t21 77.5q0 67 -49.5 99t-138.5 32v45l184 203v6h-320v87h428v-45l-220 -241v-6q98 -7 155 -60t57 -133q0 -64 -33.5 -111t-87.5 -71.5t-112 -24.5z" />
    <glyph glyph-name="four" unicode="4" horiz-adv-x="611" 
d="M348 0v185h-331v45l371 450h45v-413h153v-82h-153v-185h-85zM111 273v-6h237v287h-6z" />
    <glyph glyph-name="five" unicode="5" horiz-adv-x="531" 
d="M243 -12q-67 0 -122.5 31.5t-92.5 86.5l24 24q33 -34 73.5 -52t90.5 -18q47 0 85 18t59.5 52.5t21.5 81.5q0 62 -42 99.5t-110 37.5q-42 0 -78 -12t-68 -33h-4l53 376h338v-87h-303l-32 -224h6q24 19 56.5 31.5t71.5 12.5q55 0 102.5 -24.5t76.5 -70t29 -104.5
q0 -64 -30 -115.5t-83.5 -81t-121.5 -29.5z" />
    <glyph glyph-name="six" unicode="6" horiz-adv-x="582" 
d="M298 -12q-51 0 -94 20t-75.5 57t-51.5 89q-31 86 -23.5 189t53.5 181q43 73 113 117.5t157 44.5q41 0 79.5 -11t75.5 -34l-16 -36q-24 12 -55 19t-66 7q-76 0 -131 -36.5t-83.5 -106t-28.5 -166.5h6q25 45 68.5 72.5t102.5 27.5q55 0 100.5 -24.5t72 -71t26.5 -108.5
q0 -65 -31 -118t-83.5 -82.5t-115.5 -29.5zM293 38q41 0 71.5 20t47 57t16.5 87t-16.5 86t-45.5 54.5t-67 18.5q-48 0 -84.5 -31t-54.5 -79v-13q0 -64 15.5 -109t45 -68t72.5 -23z" />
    <glyph glyph-name="seven" unicode="7" horiz-adv-x="492" 
d="M409 588l-354 -584v-4h115l310 635v45h-450v-87h379v-5z" />
    <glyph glyph-name="eight" unicode="8" horiz-adv-x="596" 
d="M298 -12q-74 0 -130 25t-86.5 70t-30.5 104q0 63 45 109.5t123 62.5v6q-65 16 -103 56.5t-38 98.5q0 46 27.5 85.5t77.5 63t115 23.5t115.5 -23.5t77.5 -63t27 -85.5q0 -59 -37.5 -99t-102.5 -56v-6q79 -16 123.5 -62t44.5 -110q0 -59 -31 -104t-87 -70t-130 -25zM298 38
q45 0 79 19t53 52.5t19 76.5q0 68 -41.5 109t-109.5 41q-44 0 -78 -18.5t-53 -53t-19 -78.5q0 -66 41 -107t109 -41zM298 386q38 0 66 16t43 45t15 68q0 58 -34 92.5t-90 34.5q-37 0 -64.5 -15.5t-43 -44t-15.5 -67.5q0 -59 33.5 -94t89.5 -35z" />
    <glyph glyph-name="nine" unicode="9" horiz-adv-x="580" 
d="M203 -6q-44 0 -82 12t-73 33l16 36q23 -12 54 -19t68 -7q78 0 133 38.5t82.5 111t26.5 172.5h-6q-22 -41 -67.5 -69t-105.5 -28q-52 0 -96 25t-70 71t-26 106q0 61 29.5 110.5t81 77.5t114.5 28q75 0 132 -41.5t87 -117.5q22 -56 26.5 -124.5t-10 -135.5t-45.5 -120
q-43 -72 -111 -115.5t-158 -43.5zM283 335q47 0 83 30t54 76v16q0 57 -15.5 99t-45.5 64t-71 22q-39 0 -69 -18.5t-47 -53.5t-17 -83q0 -71 35.5 -111.5t92.5 -40.5z" />
    <glyph glyph-name="colon" unicode=":" horiz-adv-x="260" 
d="M131 -12q-27 0 -46.5 19.5t-19.5 46.5t19.5 46.5t46.5 19.5t46.5 -19.5t19.5 -46.5t-19.5 -46.5t-46.5 -19.5zM131 328q-27 0 -46.5 19.5t-19.5 46.5t19.5 46.5t46.5 19.5t46.5 -19.5t19.5 -46.5t-19.5 -46.5t-46.5 -19.5z" />
    <glyph glyph-name="question" unicode="?" horiz-adv-x="475" 
d="M186 325q79 31 116.5 75t37.5 103q0 38 -18 68t-51.5 47t-76.5 17q-51 0 -86 -16t-63 -44l-25 26q39 50 89 78t113 28q59 0 107.5 -23.5t76.5 -66t28 -97.5q0 -72 -52.5 -127.5t-144.5 -95.5v-106h-51v134zM213 -12q-27 0 -46.5 19.5t-19.5 46.5t19.5 46.5t46.5 19.5
t46.5 -19.5t19.5 -46.5t-19.5 -46.5t-46.5 -19.5z" />
    <glyph glyph-name="A" unicode="A" horiz-adv-x="693" 
d="M6 25q33 4 49.5 25.5t36.5 73.5l224 571h55l234 -564q25 -60 40 -80.5t45 -25.5v-25h-219v25q28 2 40 14.5t10.5 33.5t-14.5 52l-180 442h-6l-174 -444q-13 -33 -14.5 -53t11.5 -31t43 -14v-25h-181v25zM164 222v50h319v-50h-319z" />
    <glyph glyph-name="B" unicode="B" horiz-adv-x="655" 
d="M55 25q27 4 40 12.5t18.5 27.5t5.5 57v452q0 38 -5.5 56.5t-18.5 27t-40 12.5v25h275q116 0 180.5 -44.5t64.5 -119.5q0 -63 -47 -107t-122 -56v-6q94 -8 149.5 -54.5t55.5 -116.5q0 -54 -30.5 -97.5t-88.5 -68.5t-139 -25h-298v25zM310 390q53 0 89 15t55 44t19 72
q0 60 -42 92t-120 32h-100v-255h99zM211 340v-290h110q58 0 100 17t64.5 50t22.5 80q0 70 -51 106.5t-144 36.5h-102z" />
    <glyph glyph-name="C" unicode="C" horiz-adv-x="689" 
d="M399 -12q-93 0 -173.5 42.5t-129.5 123.5t-49 191q0 109 50.5 191.5t134 126.5t179.5 44q60 0 110.5 -13t94.5 -37v-148h-27q-24 71 -70.5 108t-111.5 37q-72 0 -130 -38t-90.5 -104.5t-32.5 -150.5q0 -93 36.5 -159.5t99 -101t141.5 -34.5q65 0 118 22t101 65l23 -23
q-56 -71 -121.5 -106.5t-152.5 -35.5z" />
    <glyph glyph-name="D" unicode="D" horiz-adv-x="761" 
d="M120 571q0 42 -6 62t-18.5 26.5t-39.5 10.5v25h280q112 0 197.5 -43.5t133 -122t47.5 -179.5q0 -103 -47.5 -182.5t-133 -123.5t-197.5 -44h-280v25q30 5 43 15t17 30t4 62v439zM311 50q94 0 160 35t101 102.5t35 162.5q0 93 -35 159.5t-101 101t-160 34.5h-99v-595h99z
" />
    <glyph glyph-name="E" unicode="E" 
d="M589 172v-172h-534v25q27 5 40 13t18.5 27t5.5 57v452q0 38 -5 57t-18.5 27.5t-40.5 11.5v25h514v-147h-27q-3 36 -18.5 57t-46.5 30.5t-81 9.5h-185v-268h137q42 0 67.5 7.5t37.5 23.5t13 42h27v-196h-27q-1 27 -13 43t-37.5 23t-67.5 7h-137v-277h207q43 0 73.5 11
t49 38t21.5 73h27z" />
    <glyph glyph-name="F" unicode="F" horiz-adv-x="570" 
d="M55 25q27 5 40.5 13.5t18.5 27.5t5 57v452q0 38 -5 56.5t-18 26.5t-41 12v25h478v-147h-27q-4 53 -38 75t-109 22h-148v-276h117q62 0 88.5 17t28.5 56h27v-196h-27q-2 39 -28.5 56t-88.5 17h-117v-196q0 -39 5.5 -58t20 -27.5t45.5 -12.5v-25h-227v25z" />
    <glyph glyph-name="G" unicode="G" horiz-adv-x="739" 
d="M410 -12q-105 0 -188 45.5t-129 126.5t-46 183q0 103 50.5 186t140 130.5t201.5 47.5q66 0 124 -12.5t108 -37.5v-144h-28q-23 70 -75 105.5t-127 35.5q-88 0 -153 -40.5t-99.5 -110.5t-34.5 -158q0 -89 32 -158t92.5 -108t144.5 -39q43 0 81 9.5t79 29.5l-34 -44v201
q0 37 -8 56t-26 26.5t-52 10.5v25h237v-25q-24 -3 -36.5 -10.5t-17.5 -26.5t-5 -55v-179q-54 -34 -110.5 -52t-120.5 -18z" />
    <glyph glyph-name="H" unicode="H" horiz-adv-x="807" 
d="M596 574q0 39 -5.5 58t-18.5 27t-40 11v25h220v-25q-27 -3 -40 -11t-18.5 -27t-5.5 -58v-452q0 -38 5.5 -57t18.5 -27t40 -13v-25h-220v25q27 5 40 13t18.5 27t5.5 57v452zM119 574q0 39 -5.5 58t-18.5 27t-40 11v25h220v-25q-27 -3 -40 -11t-18.5 -27.5t-5.5 -57.5v-452
q0 -38 5.5 -57t18.5 -27t40 -13v-25h-220v25q27 5 40 13t18.5 27t5.5 57v452zM174 328v53h435v-53h-435z" />
    <glyph glyph-name="I" unicode="I" horiz-adv-x="330" 
d="M56 25q27 4 40 12.5t18.5 27.5t5.5 57v452q0 38 -5.5 57t-19 27.5t-39.5 11.5v25h220v-25q-26 -3 -39.5 -11.5t-19 -27.5t-5.5 -57v-452q0 -38 5.5 -57t18.5 -27.5t40 -12.5v-25h-220v25z" />
    <glyph glyph-name="J" unicode="J" horiz-adv-x="463" 
d="M156 -12q-42 0 -82.5 14t-67.5 35l19 34q26 -14 51.5 -20.5t51.5 -6.5q60 0 97.5 34.5t37.5 112.5v385q0 38 -5.5 56.5t-19 26.5t-39.5 11v25h220v-25q-26 -3 -39.5 -11t-19 -26.5t-5.5 -56.5v-365q0 -74 -26.5 -124t-71.5 -74.5t-101 -24.5z" />
    <glyph glyph-name="K" unicode="K" horiz-adv-x="692" 
d="M211 121q0 -38 5.5 -56.5t19 -26.5t41.5 -13v-25h-222v25q27 5 40 13t18.5 26.5t5.5 56.5v453q0 38 -5.5 57t-18.5 27.5t-40 11.5v25h220v-25q-27 -3 -40 -11.5t-18.5 -27.5t-5.5 -57v-453zM447 581q37 38 41 60t-25 29v25h207v-25q-48 -6 -81 -28t-85 -75l-304 -310
l6 85h9zM332 409l365 -404v-5h-129l-304 347z" />
    <glyph glyph-name="L" unicode="L" horiz-adv-x="578" 
d="M55 25q27 4 40.5 13t18.5 28t5 55v455q0 38 -5.5 56.5t-18.5 26.5t-40 11v25h220v-25q-28 -3 -41 -11t-18 -26t-5 -57v-526h166q46 0 76 11t48 42t23 90h27v-193h-496v25z" />
    <glyph glyph-name="M" unicode="M" horiz-adv-x="942" 
d="M428 0l-249 587h-6v-464q0 -37 5.5 -56.5t18.5 -28.5t40 -13v-25h-182v25q27 4 40.5 13t18.5 28t5 57v452q0 37 -5 55.5t-18 27.5t-41 12v25h177l243 -572h6l235 572h172v-25q-27 -3 -40.5 -11.5t-18.5 -27.5t-5 -55v-453q0 -38 5 -57t18.5 -28t40.5 -13v-25h-220v25
q27 4 40.5 13t18.5 28t5 57v470h-6l-243 -593h-55z" />
    <glyph glyph-name="N" unicode="N" horiz-adv-x="763" 
d="M53 25q27 5 40 13t18.5 27t5.5 57v510l-46 58v5h136l383 -540h6v420q0 39 -5 57.5t-18 26.5t-40 11v25h181v-25q-27 -3 -40 -11t-18.5 -27t-5.5 -57v-575h-64l-409 576h-6v-454q0 -38 5.5 -57t18.5 -27t40 -13v-25h-182v25z" />
    <glyph glyph-name="O" unicode="O" horiz-adv-x="785" 
d="M393 -12q-99 0 -178 46.5t-123.5 128.5t-44.5 184t44.5 184t123.5 129t178 47q100 0 178.5 -47t122.5 -129t44 -184t-44 -184t-122.5 -128.5t-178.5 -46.5zM393 41q71 0 125 38.5t83.5 107.5t29.5 160t-29.5 160.5t-83.5 108t-125 38.5t-125 -38.5t-83.5 -108
t-29.5 -160.5t29.5 -160t83.5 -107.5t125 -38.5z" />
    <glyph glyph-name="P" unicode="P" horiz-adv-x="587" 
d="M306 292h-95v-170q0 -38 6 -57t21.5 -27t46.5 -13v-25h-230v25q27 5 40 13t18.5 27t5.5 57v452q0 38 -5 57t-18.5 27.5t-40.5 11.5v25h251q76 0 134 -24t90 -69.5t32 -106.5t-32 -107t-90 -71t-134 -25zM211 645v-303h71q83 0 130 39t47 114t-46.5 112.5t-130.5 37.5h-71
z" />
    <glyph glyph-name="Q" unicode="Q" horiz-adv-x="785" 
d="M391 -12q-99 0 -177 46.5t-122 128.5t-44 184t44 184t122 129t177 47t177 -46.5t122 -128t44 -182.5q0 -68 -24 -127.5t-63.5 -102t-85.5 -64.5v-33q-52 -19 -93.5 -27t-76.5 -8zM485 14l22 36h277v-90h-6zM391 41q71 0 124.5 38t82.5 107.5t29 160.5q0 92 -29.5 161.5
t-83 107.5t-123.5 38t-123.5 -38t-83 -107.5t-29.5 -161.5q0 -91 29.5 -160.5t83 -107.5t123.5 -38z" />
    <glyph glyph-name="R" unicode="R" horiz-adv-x="659" 
d="M52 25q27 5 40 13t18.5 27.5t5.5 58.5v452q0 36 -5 55t-18.5 27.5t-40.5 11.5v25h263q75 0 131.5 -21.5t87.5 -60.5t31 -92q0 -52 -31.5 -92.5t-89.5 -63.5t-133 -23h-27l85 12l301 -351v-3h-120l-282 340h-60v-216q0 -39 5.5 -58.5t18.5 -27.5t40 -13v-25h-220v25z
M294 390q81 0 125 34t44 96q0 61 -43.5 93t-123.5 32h-88v-255h86z" />
    <glyph glyph-name="S" unicode="S" horiz-adv-x="540" 
d="M258 -12q-58 0 -111.5 17t-99.5 49v144h26q26 -78 72.5 -118.5t116.5 -40.5q37 0 69.5 15t52 43t19.5 65q0 38 -23.5 66t-78.5 52l-105 47q-68 30 -100.5 77t-32.5 105q0 55 30 100.5t83 71.5t119 26q52 0 99 -13t81 -34v-139h-26q-19 70 -58.5 102.5t-101.5 32.5
q-59 0 -98.5 -32.5t-39.5 -85.5q0 -37 21 -65.5t71 -51.5l107 -48q72 -33 107.5 -76.5t35.5 -106.5q0 -59 -31 -105t-84.5 -71.5t-119.5 -25.5z" />
    <glyph glyph-name="T" unicode="T" horiz-adv-x="621" 
d="M193 25q30 5 45 13t21 27t6 57v525h-61q-75 0 -110 -25.5t-44 -78.5h-26v152h574v-152h-26q-9 53 -43.5 78.5t-109.5 25.5h-62v-525q0 -38 6 -57t21 -27t45 -13v-25h-236v25z" />
    <glyph glyph-name="U" unicode="U" horiz-adv-x="758" 
d="M380 -12q-86 0 -147.5 35.5t-93.5 100.5t-32 154v296q0 39 -5.5 58t-18.5 26.5t-40 11.5v25h221v-25q-27 -4 -40.5 -11.5t-19 -26.5t-5.5 -58v-292q0 -71 23.5 -120.5t68 -75.5t106.5 -26q91 0 145.5 57.5t54.5 161.5v295q0 39 -5 57.5t-18 26.5t-41 12v25h182v-25
q-28 -4 -41 -12t-18 -27.5t-5 -58.5v-292q0 -88 -32 -154t-93.5 -102t-145.5 -36z" />
    <glyph glyph-name="V" unicode="V" horiz-adv-x="682" 
d="M366 0h-54l-215 566q-19 51 -36.5 73.5t-51.5 30.5v25h217v-25q-29 -6 -39 -19.5t-6.5 -33t16.5 -54.5l161 -426h6l168 427q15 38 17.5 58t-7 31t-35.5 17v25h175v-25q-38 -9 -55 -30t-39 -76z" />
    <glyph glyph-name="W" unicode="W" horiz-adv-x="983" 
d="M90 567q-10 34 -20 54t-24 31.5t-37 17.5v25h216v-25q-29 -7 -40.5 -18.5t-10.5 -29.5t11 -52l124 -424h6l160 442l-36 107h103l168 -537h6l121 403q12 40 14 60t-8.5 32t-39.5 17v25h175v-25q-37 -8 -53.5 -31t-32.5 -77l-169 -562h-58l-159 506h-6l-183 -506h-59z" />
    <glyph glyph-name="X" unicode="X" horiz-adv-x="690" 
d="M134 128l164 221l-163 223q-38 52 -60.5 72t-57.5 26v25h224v-25q-28 -9 -26 -31.5t35 -67.5l103 -141h6l109 147q31 42 31 62.5t-31 30.5v25h180v-25q-38 -9 -61.5 -29.5t-61.5 -70.5l-138 -186l185 -254q39 -54 63 -76.5t60 -28.5v-25h-225v25q22 6 28 17.5t-1.5 29
t-28.5 45.5l-136 186h-6l-131 -176q-34 -46 -37 -70t32 -32v-25h-181v25q39 9 63 30t62 73z" />
    <glyph glyph-name="Y" unicode="Y" horiz-adv-x="679" 
d="M295 122v211l23 -85l-202 329q-27 45 -47 65t-55 28v25h222v-25q-25 -7 -31.5 -19.5t0 -31.5t25.5 -51l129 -213h6l134 213q20 32 26.5 51t0 31.5t-30.5 19.5v25h181v-25q-39 -9 -61.5 -31t-52.5 -69l-201 -318l26 87v-217q0 -38 5.5 -57t18.5 -27t40 -13v-25h-220v25
q27 5 40 13t18.5 27t5.5 57z" />
    <glyph glyph-name="Z" unicode="Z" horiz-adv-x="608" 
d="M36 0v45l410 596v4h-228q-63 0 -95.5 -26.5t-42.5 -87.5h-26v164h509v-45l-410 -596v-4h229q47 0 78 11.5t49.5 39.5t25.5 78h26v-179h-525z" />
    <glyph glyph-name="grave" unicode="`" horiz-adv-x="208" 
d="M188 551h-41l-125 137v3h114z" />
    <glyph glyph-name="a" unicode="a" horiz-adv-x="493" 
d="M164 -12q-50 0 -84.5 32.5t-34.5 82.5q0 53 40.5 84.5t120.5 53.5l107 30l2 -42l-81 -29q-53 -19 -76.5 -35.5t-23.5 -47.5q0 -30 19.5 -47.5t48.5 -17.5q33 0 60.5 22.5t48.5 55.5v181q0 55 -27 82t-75 27q-35 0 -70 -12t-70 -35l-19 25q40 40 88.5 63.5t98.5 23.5
q47 0 83 -19.5t56.5 -58.5t20.5 -96v-224q0 -24 9 -35.5t25 -11.5q17 0 33 9l15 -23q-21 -18 -44 -27t-47 -9q-31 0 -53 20t-22 55v4h-6q-29 -41 -64 -61t-79 -20z" />
    <glyph glyph-name="b" unicode="b" horiz-adv-x="560" 
d="M290 -12q-41 0 -75.5 14t-60.5 40h-6l-43 -47h-26v614q0 24 -4.5 35.5t-14.5 16t-31 6.5v25l130 23h6v-316h6q30 43 66.5 64.5t84.5 21.5q53 0 97.5 -28.5t71 -81.5t26.5 -124q0 -77 -30.5 -137t-82.5 -93t-114 -33zM284 35q44 0 76.5 25.5t50 70t17.5 101.5
q0 81 -36 133.5t-99 52.5q-43 0 -75.5 -26.5t-52.5 -65.5v-139q0 -47 14 -81t40.5 -52.5t64.5 -18.5z" />
    <glyph glyph-name="c" unicode="c" horiz-adv-x="473" 
d="M275 -12q-67 0 -120 31.5t-83 87t-30 124.5q0 71 31 129t86 91.5t124 33.5q34 0 68 -7.5t61 -21.5v-108h-26q-10 40 -38 64t-66 24q-46 0 -80 -24.5t-52.5 -66.5t-18.5 -93q0 -60 22 -103t60.5 -65.5t87.5 -22.5q41 0 73 12.5t62 35.5l22 -22q-40 -48 -84.5 -73.5
t-98.5 -25.5z" />
    <glyph glyph-name="d" unicode="d" horiz-adv-x="567" 
d="M238 -12q-53 0 -98 28.5t-71 82t-26 124.5q0 74 30 134t82 94t116 34q34 0 64 -10t54 -30h6v164q0 24 -4.5 35.5t-14.5 16t-31 6.5v25l130 23h6v-611q0 -26 3 -37t11.5 -15.5t28.5 -6.5v-25l-124 -25h-5v76h-6q-28 -41 -65.5 -62t-85.5 -21zM271 55q43 0 75 27t49 63v142
q0 46 -14 80t-40.5 52.5t-64.5 18.5q-42 0 -75 -24.5t-51 -69t-18 -100.5q0 -89 38.5 -139t100.5 -50z" />
    <glyph glyph-name="e" unicode="e" horiz-adv-x="495" 
d="M277 -12q-65 0 -119 30.5t-85 87t-31 131.5q0 70 28.5 126.5t78.5 89t112 32.5q53 0 94.5 -21.5t65.5 -64t24 -102.5v-29h-334v46h292l-46 -27q4 44 -7 77.5t-36 52.5t-60 19q-39 0 -67.5 -20.5t-43.5 -58.5t-15 -91q0 -65 22.5 -111t62.5 -70t93 -24q43 0 75 12t63 36
l22 -22q-42 -50 -86.5 -74.5t-102.5 -24.5z" />
    <glyph glyph-name="f" unicode="f" horiz-adv-x="359" 
d="M72 25q21 4 30 9t12 18.5t3 44.5v322h-100v54h100v67q0 56 22 97t62.5 63t95.5 22q46 0 87 -13v-97h-24q-7 27 -28.5 43.5t-50.5 16.5q-36 0 -57 -24t-21 -73v-102h127v-54h-127v-322q0 -31 3 -44t13 -18.5t34 -9.5v-25h-181v25z" />
    <glyph glyph-name="g" unicode="g" horiz-adv-x="526" 
d="M234 -214q-98 0 -154.5 34t-56.5 87q0 30 18.5 55.5t57.5 47.5v24l72 -28q-33 -13 -51 -34.5t-18 -48.5q0 -41 35 -66t101 -25q46 0 86 13.5t64 37t24 53.5q0 34 -25 50.5t-78 16.5h-152q-51 0 -80.5 26t-29.5 65q0 29 19.5 56.5t59.5 48.5v19l60 -32q-30 -11 -48 -27.5
t-18 -37.5q0 -18 15 -29.5t45 -11.5h149q79 0 124 -30t45 -88q0 -49 -33.5 -89.5t-94 -63.5t-136.5 -23zM249 168q-55 0 -97.5 20t-66 56t-23.5 82t24 82.5t66.5 56.5t96.5 20q33 0 68.5 -11.5t65.5 -35.5v-18q22 -13 36.5 -38t14.5 -57q0 -45 -23.5 -80.5t-65.5 -56
t-96 -20.5zM248 211q29 0 50.5 14t34 40t12.5 61q0 54 -27 85t-70 31q-28 0 -50 -14t-34 -40t-12 -62q0 -53 26.5 -84t69.5 -31zM333 426l-31 47l195 37h5v-84h-169z" />
    <glyph glyph-name="h" unicode="h" horiz-adv-x="557" 
d="M90 609q0 24 -4.5 35.5t-14.5 16t-31 6.5v25l130 23h6v-316h6q31 42 65 64t79 22q43 0 77 -19.5t53.5 -59t19.5 -96.5v-207q0 -32 3 -46.5t11.5 -21t28.5 -10.5v-25h-172v25q19 4 28 10.5t12 21.5t3 46v206q0 36 -12 60.5t-32.5 37t-46.5 12.5q-41 0 -71 -25.5t-52 -63.5
v-227q0 -31 3.5 -46t12.5 -21.5t27 -10.5v-25h-172v25q20 4 28.5 10.5t11.5 21t3 46.5v506z" />
    <glyph glyph-name="i" unicode="i" horiz-adv-x="270" 
d="M181 102q0 -31 3 -45.5t12 -21t28 -10.5v-25h-172v25q20 4 28.5 10.5t11.5 21t3 45.5v270q0 24 -4.5 35.5t-14.5 16t-31 6.5v25l130 23h6v-376zM136 562q-26 0 -44 18t-18 45q0 26 18 44t44 18q25 0 43 -18.5t18 -43.5q0 -27 -17.5 -45t-43.5 -18z" />
    <glyph glyph-name="j" unicode="j" horiz-adv-x="255" 
d="M31 -214q-24 0 -47.5 6.5t-39.5 17.5l10 31q25 -9 51 -9q43 0 64 25.5t21 78.5v436q0 24 -4.5 35.5t-14.5 16t-31 6.5v25l130 23h6v-529q0 -81 -42 -122t-103 -41zM131 562q-26 0 -44 18t-18 45q0 26 18 44t44 18q25 0 43 -18.5t18 -43.5q0 -27 -17.5 -45t-43.5 -18z" />
    <glyph glyph-name="k" unicode="k" horiz-adv-x="531" 
d="M46 25q20 4 28.5 10.5t11.5 21t3 45.5v507q0 24 -4.5 35.5t-14.5 16t-31 6.5v25l130 23h6v-613q0 -31 3 -45.5t12 -21t28 -10.5v-25h-172v25zM409 0l-208 242l64 53l263 -293v-2h-119zM161 178l6 74h14l145 137q28 27 32 40.5t-16 18.5v25h173v-25q-42 -7 -70 -22.5
t-66 -49.5z" />
    <glyph glyph-name="l" unicode="l" horiz-adv-x="263" 
d="M46 25q20 4 28.5 10.5t11.5 21t3 45.5v507q0 24 -4.5 35.5t-14.5 16t-31 6.5v25l130 23h6v-613q0 -31 3 -45.5t12 -21t28 -10.5v-25h-172v25z" />
    <glyph glyph-name="m" unicode="m" horiz-adv-x="838" 
d="M95 372q0 24 -4.5 35.5t-14.5 16t-31 6.5v25l130 23h6v-79h6q28 42 65 64t82 22t79 -25t48 -68h6q29 45 65.5 69t81.5 24q40 0 72 -19.5t51 -57t19 -89.5v-216q0 -32 2.5 -46.5t11.5 -21.5t29 -10v-25h-172v25q19 3 28 10t12 22t3 46v210q0 52 -23 79t-62 27
q-36 0 -64.5 -24t-50.5 -64v-233q0 -30 3.5 -44t12 -19.5t27.5 -9.5v-25h-172v25q19 4 27.5 9.5t12 19.5t3.5 44v213q0 53 -22 80.5t-65 27.5q-36 0 -66.5 -25.5t-49.5 -62.5v-231q0 -29 3 -43t12 -21t28 -11v-25h-172v25q20 4 29 11t11.5 20.5t2.5 43.5v272z" />
    <glyph glyph-name="n" unicode="n" horiz-adv-x="563" 
d="M95 372q0 24 -4.5 35.5t-14.5 16t-31 6.5v25l130 23h6v-79h6q31 43 65 64.5t79 21.5q43 0 77 -19.5t53.5 -59t19.5 -96.5v-207q0 -32 3 -46.5t11.5 -21t28.5 -10.5v-25h-172v25q19 4 28 10.5t12 21.5t3 46v206q0 36 -12 60.5t-32 37t-46 12.5q-41 0 -71.5 -25.5
t-52.5 -63.5v-227q0 -31 3.5 -46t12.5 -21.5t27 -10.5v-25h-172v25q20 4 28.5 10.5t11.5 21t3 46.5v269z" />
    <glyph glyph-name="o" unicode="o" horiz-adv-x="555" 
d="M278 -12q-68 0 -121.5 32t-84 88.5t-30.5 128.5t30.5 128.5t84 88t121.5 31.5t121.5 -31.5t83.5 -88t30 -128.5t-30 -128.5t-83.5 -88.5t-121.5 -32zM278 40q42 0 73 23.5t48 67.5t17 106q0 61 -17 105t-48 67.5t-73 23.5q-43 0 -74 -24t-48 -68t-17 -104t16.5 -104.5
t48 -68.5t74.5 -24z" />
    <glyph glyph-name="p" unicode="p" horiz-adv-x="571" 
d="M90 372q0 24 -4.5 35.5t-14.5 16t-31 6.5v25l130 23h6v-79h6q28 41 64 63.5t86 22.5q56 0 100.5 -30t70 -83.5t25.5 -121.5q0 -76 -30.5 -135.5t-82.5 -93t-114 -33.5q-35 0 -65.5 10t-53.5 30h-6v-131q0 -31 3 -44.5t12 -18.5t31 -9v-25h-175v25q20 4 28.5 9.5
t11.5 18.5t3 44v475zM296 35q42 0 74.5 24.5t50.5 69t18 101.5q0 86 -36.5 137t-98.5 51q-43 0 -75.5 -26t-52.5 -66v-136q0 -52 15.5 -87t42 -51.5t62.5 -16.5z" />
    <glyph glyph-name="q" unicode="q" horiz-adv-x="559" 
d="M395 -101v172h-6q-30 -42 -66.5 -62.5t-85.5 -20.5q-52 0 -96.5 28t-71 81t-26.5 125q0 75 30 135.5t82 94t115 33.5q39 0 74 -13.5t62 -40.5h6l43 42h26v-574q0 -31 3 -45t11.5 -20t28.5 -9v-25h-175v25q22 3 31 9t12 19.5t3 45.5zM271 55q43 0 75 26.5t49 63.5v141
q0 50 -15 84t-42 51t-62 17q-42 0 -75 -24.5t-51 -69t-18 -101.5q0 -86 37.5 -137t101.5 -51z" />
    <glyph glyph-name="r" unicode="r" horiz-adv-x="379" 
d="M95 372q0 24 -4.5 35.5t-14.5 16t-31 6.5v25l130 23h6v-136h6q21 75 54 109t82 34q19 0 36 -6v-88q-17 6 -38 6q-49 0 -83.5 -35t-56.5 -100v-165q0 -31 3 -44.5t12.5 -19t32.5 -8.5v-25h-177v25q20 3 28.5 9t11.5 19t3 44v275z" />
    <glyph glyph-name="s" unicode="s" horiz-adv-x="410" 
d="M193 -12q-39 0 -78.5 11.5t-68.5 32.5v104h26q21 -50 52 -74.5t75 -24.5q38 0 65 18.5t27 52.5q0 24 -15.5 39t-55.5 33l-73 33q-46 21 -68.5 53t-22.5 73t21.5 74.5t60 52.5t86.5 19q35 0 69 -8.5t61 -22.5v-101h-26q-14 41 -40.5 61.5t-69.5 20.5q-39 0 -64.5 -18.5
t-25.5 -49.5q0 -24 16 -41t53 -33l75 -32q46 -20 69 -51.5t23 -74.5t-22.5 -76.5t-62 -52t-86.5 -18.5z" />
    <glyph glyph-name="t" unicode="t" horiz-adv-x="353" 
d="M224 -12q-35 0 -61.5 13.5t-41.5 41.5t-15 71v305h-96v40q51 2 75 12t34 37t13 85h60v-120h138v-54h-138v-303q0 -38 15 -54.5t47 -16.5q38 0 71 20l18 -26q-56 -51 -119 -51z" />
    <glyph glyph-name="u" unicode="u" horiz-adv-x="548" 
d="M224 -12q-38 0 -69.5 18.5t-50 55t-18.5 89.5v217q0 28 -4 43.5t-14 24t-29 12.5v25h133v0v-318q0 -50 22 -75.5t58 -25.5q39 0 69.5 26.5t49.5 64.5v224q0 41 -10 58t-38 21v25h134v0v-369q0 -26 3 -37t11.5 -15.5t28.5 -6.5v-25l-124 -25h-5v76h-6q-24 -36 -60 -59.5
t-81 -23.5z" />
    <glyph glyph-name="v" unicode="v" horiz-adv-x="501" 
d="M75 371q-14 34 -27.5 51t-40.5 26v25h190v-25q-34 -8 -37.5 -26t10.5 -53l97 -246h7l97 239q16 39 13.5 58.5t-33.5 27.5v25h147v-25q-29 -8 -44.5 -27t-33.5 -62l-147 -359h-45z" />
    <glyph glyph-name="w" unicode="w" horiz-adv-x="738" 
d="M247 134l103 262l-27 77h89l117 -340h6l77 227q14 42 10 61t-33 27v25h145v-25q-31 -10 -45 -29t-29 -62l-123 -357h-44l-115 335h-6l-130 -335h-43l-124 362q-8 25 -16.5 41.5t-21 27.5t-30.5 17v25h187v-25q-24 -6 -32.5 -17t-6.5 -26t11 -42l75 -229h6z" />
    <glyph glyph-name="x" unicode="x" horiz-adv-x="502" 
d="M115 104l95 127l-103 142q-23 31 -44 49t-50 26v25h195v-25q-27 -8 -24 -25.5t25 -48.5l52 -73h6l55 75q24 33 23.5 49t-26.5 23v25h155v-25q-29 -7 -53 -25.5t-50 -53.5l-81 -107l110 -153q25 -36 47 -56t52 -28v-25h-196v25q27 8 25 24t-24 49l-65 93h-6l-65 -89
q-17 -24 -22.5 -39t1 -24t27.5 -14v-25h-160v25q29 7 51.5 25t49.5 54z" />
    <glyph glyph-name="y" unicode="y" horiz-adv-x="506" 
d="M89 -214q-38 0 -65 15v80q32 -13 68 -13q44 0 77 22t53 75l151 393q11 29 14 44.5t-3.5 27t-28.5 18.5v25h146v-25q-32 -12 -48.5 -33t-32.5 -63l-164 -426q-30 -78 -73 -109t-94 -31zM82 355q-18 43 -33.5 62.5t-44.5 30.5v25h190v-25q-24 -7 -31.5 -17.5t-4.5 -26
t16 -46.5l100 -244h23l-59 -129z" />
    <glyph glyph-name="z" unicode="z" horiz-adv-x="456" 
d="M273 48h-127v6l264 379v40h-360v-119h26q13 41 36.5 56t77.5 15h109v-6l-263 -379v-40h381v135h-26q-17 -51 -43 -69t-75 -18z" />
    <glyph glyph-name="uni00A0" unicode="&#xa0;" horiz-adv-x="245" 
 />
    <glyph glyph-name="exclamdown" unicode="&#xa1;" horiz-adv-x="249" 
d="M147 282l28 -504h-102l28 504h46zM123 485q27 0 46.5 -19.5t19.5 -46.5t-19.5 -46.5t-46.5 -19.5t-46.5 19.5t-19.5 46.5t19.5 46.5t46.5 19.5z" />
    <glyph glyph-name="dieresis" unicode="&#xa8;" horiz-adv-x="336" 
d="M77 564q-26 0 -43 17.5t-17 43.5q0 25 17.5 42.5t42.5 17.5q24 0 42 -17.5t18 -42.5q0 -26 -17.5 -43.5t-42.5 -17.5zM261 564q-26 0 -43 17.5t-17 43.5q0 25 17.5 42.5t42.5 17.5q24 0 42 -17.5t18 -42.5q0 -26 -17.5 -43.5t-42.5 -17.5z" />
    <glyph glyph-name="macron" unicode="&#xaf;" horiz-adv-x="338" 
d="M317 583v48h-296v-48h296z" />
    <glyph glyph-name="acute" unicode="&#xb4;" horiz-adv-x="210" 
d="M23 551l51 140h115v-3l-127 -137h-39z" />
    <glyph glyph-name="cedilla" unicode="&#xb8;" horiz-adv-x="241" 
d="M117 -203q-31 0 -56 12.5t-49 39.5l17 19q33 -30 71 -30q27 0 42.5 12t15.5 32q0 17 -12.5 27t-31.5 10q-21 0 -38 -12l-3 2l37 99l28 -8l-19 -52l2 -1q11 3 25 3q29 0 50.5 -18t21.5 -50q0 -36 -28.5 -60.5t-72.5 -24.5z" />
    <glyph glyph-name="questiondown" unicode="&#xbf;" horiz-adv-x="466" 
d="M284 148q-79 -31 -116.5 -75t-37.5 -103q0 -38 18 -68t51.5 -47t76.5 -17q51 0 86 16t63 44l25 -26q-39 -50 -89 -78t-113 -28q-59 0 -107.5 23.5t-76.5 66t-28 97.5q0 72 52.5 127.5t144.5 95.5v106h51v-134zM257 485q27 0 46.5 -19.5t19.5 -46.5t-19.5 -46.5
t-46.5 -19.5t-46.5 19.5t-19.5 46.5t19.5 46.5t46.5 19.5z" />
    <glyph glyph-name="Agrave" unicode="&#xc0;" horiz-adv-x="693" 
d="M6 25q33 4 49.5 25.5t36.5 73.5l224 571h55l234 -564q25 -60 40 -80.5t45 -25.5v-25h-219v25q28 2 40 14.5t10.5 33.5t-14.5 52l-180 442h-6l-174 -444q-13 -33 -14.5 -53t11.5 -31t43 -14v-25h-181v25zM164 222v50h319v-50h-319zM390 754h-41l-125 137v3h114z" />
    <glyph glyph-name="Aacute" unicode="&#xc1;" horiz-adv-x="693" 
d="M6 25q33 4 49.5 25.5t36.5 73.5l224 571h55l234 -564q25 -60 40 -80.5t45 -25.5v-25h-219v25q28 2 40 14.5t10.5 33.5t-14.5 52l-180 442h-6l-174 -444q-13 -33 -14.5 -53t11.5 -31t43 -14v-25h-181v25zM164 222v50h319v-50h-319zM299 754l51 140h115v-3l-127 -137h-39z
" />
    <glyph glyph-name="Acircumflex" unicode="&#xc2;" horiz-adv-x="693" 
d="M6 25q33 4 49.5 25.5t36.5 73.5l224 571h55l234 -564q25 -60 40 -80.5t45 -25.5v-25h-219v25q28 2 40 14.5t10.5 33.5t-14.5 52l-180 442h-6l-174 -444q-13 -33 -14.5 -53t11.5 -31t43 -14v-25h-181v25zM164 222v50h319v-50h-319zM204 754l115 140h54l114 -140h-49
l-92 69l-95 -69h-47z" />
    <glyph glyph-name="Atilde" unicode="&#xc3;" horiz-adv-x="693" 
d="M6 25q33 4 49.5 25.5t36.5 73.5l224 571h55l234 -564q25 -60 40 -80.5t45 -25.5v-25h-219v25q28 2 40 14.5t10.5 33.5t-14.5 52l-180 442h-6l-174 -444q-13 -33 -14.5 -53t11.5 -31t43 -14v-25h-181v25zM164 222v50h319v-50h-319zM409 758q-20 0 -36.5 7.5t-36.5 21.5
l-17 13q-15 11 -25.5 15t-22.5 4q-20 0 -31 -13.5t-17 -43.5h-37q4 59 30 88t63 29q21 0 37 -7t36 -22l17 -12q16 -11 25.5 -15t22.5 -4q19 0 30 13.5t18 43.5h37q-4 -59 -30.5 -88.5t-62.5 -29.5z" />
    <glyph glyph-name="Adieresis" unicode="&#xc4;" horiz-adv-x="693" 
d="M6 25q33 4 49.5 25.5t36.5 73.5l224 571h55l234 -564q25 -60 40 -80.5t45 -25.5v-25h-219v25q28 2 40 14.5t10.5 33.5t-14.5 52l-180 442h-6l-174 -444q-13 -33 -14.5 -53t11.5 -31t43 -14v-25h-181v25zM164 222v50h319v-50h-319zM253 767q-26 0 -43 17.5t-17 43.5
q0 25 17.5 42.5t42.5 17.5q24 0 42 -17.5t18 -42.5q0 -26 -17.5 -43.5t-42.5 -17.5zM437 767q-26 0 -43 17.5t-17 43.5q0 25 17.5 42.5t42.5 17.5q24 0 42 -17.5t18 -42.5q0 -26 -17.5 -43.5t-42.5 -17.5z" />
    <glyph glyph-name="Aring" unicode="&#xc5;" horiz-adv-x="693" 
d="M6 25q33 4 49.5 25.5t36.5 73.5l224 571h55l234 -564q25 -60 40 -80.5t45 -25.5v-25h-219v25q28 2 40 14.5t10.5 33.5t-14.5 52l-180 442h-6l-174 -444q-13 -33 -14.5 -53t11.5 -31t43 -14v-25h-181v25zM164 222v50h319v-50h-319zM344 734q-40 0 -68 27.5t-28 66.5
t28 66.5t68 27.5q39 0 67 -27.5t28 -66.5t-28 -66.5t-67 -27.5zM344 774q23 0 37.5 15t14.5 39t-14.5 39t-37.5 15t-38 -15t-15 -39t15 -39t38 -15z" />
    <glyph glyph-name="AE" unicode="&#xc6;" horiz-adv-x="900" 
d="M-14 25q34 12 58.5 35.5t47.5 65.5l310 569h435v-147h-27q-4 37 -19.5 58t-46.5 30t-82 9h-143v-268h99q62 0 88 17.5t28 55.5h27v-196h-27q-2 38 -28 55.5t-89 17.5h-98v-277h166q43 0 73.5 10.5t49.5 37.5t22 74h27v-172h-494v25q26 5 38.5 12t19 25t6.5 56v505h-6
l-276 -509q-15 -27 -19.5 -42.5t3.5 -27.5t36 -19v-25h-179v25zM180 222l6 50h262v-50h-268z" />
    <glyph glyph-name="Ccedilla" unicode="&#xc7;" horiz-adv-x="689" 
d="M399 -12q-93 0 -173.5 42.5t-129.5 123.5t-49 191q0 109 50.5 191.5t134 126.5t179.5 44q60 0 110.5 -13t94.5 -37v-148h-27q-24 71 -70.5 108t-111.5 37q-72 0 -130 -38t-90.5 -104.5t-32.5 -150.5q0 -93 36.5 -159.5t99 -101t141.5 -34.5q65 0 118 22t101 65l23 -23
q-56 -71 -121.5 -106.5t-152.5 -35.5zM378 -203q-31 0 -56 12.5t-49 39.5l17 19q33 -30 71 -30q27 0 42.5 12t15.5 32q0 17 -12.5 27t-31.5 10q-21 0 -38 -12l-3 2l37 99l28 -8l-19 -52l2 -1q11 3 25 3q29 0 50.5 -18t21.5 -50q0 -36 -28.5 -60.5t-72.5 -24.5z" />
    <glyph glyph-name="Egrave" unicode="&#xc8;" 
d="M589 172v-172h-534v25q27 5 40 13t18.5 27t5.5 57v452q0 38 -5 57t-18.5 27.5t-40.5 11.5v25h514v-147h-27q-3 36 -18.5 57t-46.5 30.5t-81 9.5h-185v-268h137q42 0 67.5 7.5t37.5 23.5t13 42h27v-196h-27q-1 27 -13 43t-37.5 23t-67.5 7h-137v-277h207q43 0 73.5 11
t49 38t21.5 73h27zM389 754h-41l-125 137v3h114z" />
    <glyph glyph-name="Eacute" unicode="&#xc9;" 
d="M589 172v-172h-534v25q27 5 40 13t18.5 27t5.5 57v452q0 38 -5 57t-18.5 27.5t-40.5 11.5v25h514v-147h-27q-3 36 -18.5 57t-46.5 30.5t-81 9.5h-185v-268h137q42 0 67.5 7.5t37.5 23.5t13 42h27v-196h-27q-1 27 -13 43t-37.5 23t-67.5 7h-137v-277h207q43 0 73.5 11
t49 38t21.5 73h27zM298 754l51 140h115v-3l-127 -137h-39z" />
    <glyph glyph-name="Ecircumflex" unicode="&#xca;" 
d="M589 172v-172h-534v25q27 5 40 13t18.5 27t5.5 57v452q0 38 -5 57t-18.5 27.5t-40.5 11.5v25h514v-147h-27q-3 36 -18.5 57t-46.5 30.5t-81 9.5h-185v-268h137q42 0 67.5 7.5t37.5 23.5t13 42h27v-196h-27q-1 27 -13 43t-37.5 23t-67.5 7h-137v-277h207q43 0 73.5 11
t49 38t21.5 73h27zM203 754l115 140h54l114 -140h-49l-92 69l-95 -69h-47z" />
    <glyph glyph-name="Edieresis" unicode="&#xcb;" 
d="M589 172v-172h-534v25q27 5 40 13t18.5 27t5.5 57v452q0 38 -5 57t-18.5 27.5t-40.5 11.5v25h514v-147h-27q-3 36 -18.5 57t-46.5 30.5t-81 9.5h-185v-268h137q42 0 67.5 7.5t37.5 23.5t13 42h27v-196h-27q-1 27 -13 43t-37.5 23t-67.5 7h-137v-277h207q43 0 73.5 11
t49 38t21.5 73h27zM252 767q-26 0 -43 17.5t-17 43.5q0 25 17.5 42.5t42.5 17.5q24 0 42 -17.5t18 -42.5q0 -26 -17.5 -43.5t-42.5 -17.5zM436 767q-26 0 -43 17.5t-17 43.5q0 25 17.5 42.5t42.5 17.5q24 0 42 -17.5t18 -42.5q0 -26 -17.5 -43.5t-42.5 -17.5z" />
    <glyph glyph-name="Igrave" unicode="&#xcc;" horiz-adv-x="330" 
d="M56 25q27 4 40 12.5t18.5 27.5t5.5 57v452q0 38 -5.5 57t-19 27.5t-39.5 11.5v25h220v-25q-26 -3 -39.5 -11.5t-19 -27.5t-5.5 -57v-452q0 -38 5.5 -57t18.5 -27.5t40 -12.5v-25h-220v25zM212 754h-41l-125 137v3h114z" />
    <glyph glyph-name="Iacute" unicode="&#xcd;" horiz-adv-x="330" 
d="M56 25q27 4 40 12.5t18.5 27.5t5.5 57v452q0 38 -5.5 57t-19 27.5t-39.5 11.5v25h220v-25q-26 -3 -39.5 -11.5t-19 -27.5t-5.5 -57v-452q0 -38 5.5 -57t18.5 -27.5t40 -12.5v-25h-220v25zM121 754l51 140h115v-3l-127 -137h-39z" />
    <glyph glyph-name="Icircumflex" unicode="&#xce;" horiz-adv-x="330" 
d="M56 25q27 4 40 12.5t18.5 27.5t5.5 57v452q0 38 -5.5 57t-19 27.5t-39.5 11.5v25h220v-25q-26 -3 -39.5 -11.5t-19 -27.5t-5.5 -57v-452q0 -38 5.5 -57t18.5 -27.5t40 -12.5v-25h-220v25zM26 754l115 140h54l114 -140h-49l-92 69l-95 -69h-47z" />
    <glyph glyph-name="Idieresis" unicode="&#xcf;" horiz-adv-x="330" 
d="M56 25q27 4 40 12.5t18.5 27.5t5.5 57v452q0 38 -5.5 57t-19 27.5t-39.5 11.5v25h220v-25q-26 -3 -39.5 -11.5t-19 -27.5t-5.5 -57v-452q0 -38 5.5 -57t18.5 -27.5t40 -12.5v-25h-220v25zM75 767q-26 0 -43 17.5t-17 43.5q0 25 17.5 42.5t42.5 17.5q24 0 42 -17.5
t18 -42.5q0 -26 -17.5 -43.5t-42.5 -17.5zM259 767q-26 0 -43 17.5t-17 43.5q0 25 17.5 42.5t42.5 17.5q24 0 42 -17.5t18 -42.5q0 -26 -17.5 -43.5t-42.5 -17.5z" />
    <glyph glyph-name="Eth" unicode="&#xd0;" horiz-adv-x="768" 
d="M127 571q0 42 -6 62t-18.5 26.5t-39.5 10.5v25h280q112 0 197.5 -43.5t133 -122t47.5 -179.5q0 -103 -47.5 -182.5t-133 -123.5t-197.5 -44h-280v25q30 5 43 15t17 30t4 62v439zM318 50q94 0 160 35t101 102.5t35 162.5q0 93 -35 159.5t-101 101t-160 34.5h-99v-595h99z
M29 332v48h324v-48h-324z" />
    <glyph glyph-name="Ntilde" unicode="&#xd1;" horiz-adv-x="763" 
d="M53 25q27 5 40 13t18.5 27t5.5 57v510l-46 58v5h136l383 -540h6v420q0 39 -5 57.5t-18 26.5t-40 11v25h181v-25q-27 -3 -40 -11t-18.5 -27t-5.5 -57v-575h-64l-409 576h-6v-454q0 -38 5.5 -57t18.5 -27t40 -13v-25h-182v25zM453 758q-20 0 -36.5 7.5t-36.5 21.5l-17 13
q-15 11 -25.5 15t-22.5 4q-20 0 -31 -13.5t-17 -43.5h-37q4 59 30 88t63 29q21 0 37 -7t36 -22l17 -12q16 -11 25.5 -15t22.5 -4q19 0 30 13.5t18 43.5h37q-4 -59 -30.5 -88.5t-62.5 -29.5z" />
    <glyph glyph-name="Ograve" unicode="&#xd2;" horiz-adv-x="785" 
d="M393 -12q-99 0 -178 46.5t-123.5 128.5t-44.5 184t44.5 184t123.5 129t178 47q100 0 178.5 -47t122.5 -129t44 -184t-44 -184t-122.5 -128.5t-178.5 -46.5zM393 41q71 0 125 38.5t83.5 107.5t29.5 160t-29.5 160.5t-83.5 108t-125 38.5t-125 -38.5t-83.5 -108
t-29.5 -160.5t29.5 -160t83.5 -107.5t125 -38.5zM439 754h-41l-125 137v3h114z" />
    <glyph glyph-name="Oacute" unicode="&#xd3;" horiz-adv-x="785" 
d="M393 -12q-99 0 -178 46.5t-123.5 128.5t-44.5 184t44.5 184t123.5 129t178 47q100 0 178.5 -47t122.5 -129t44 -184t-44 -184t-122.5 -128.5t-178.5 -46.5zM393 41q71 0 125 38.5t83.5 107.5t29.5 160t-29.5 160.5t-83.5 108t-125 38.5t-125 -38.5t-83.5 -108
t-29.5 -160.5t29.5 -160t83.5 -107.5t125 -38.5zM348 754l51 140h115v-3l-127 -137h-39z" />
    <glyph glyph-name="Ocircumflex" unicode="&#xd4;" horiz-adv-x="785" 
d="M393 -12q-99 0 -178 46.5t-123.5 128.5t-44.5 184t44.5 184t123.5 129t178 47q100 0 178.5 -47t122.5 -129t44 -184t-44 -184t-122.5 -128.5t-178.5 -46.5zM393 41q71 0 125 38.5t83.5 107.5t29.5 160t-29.5 160.5t-83.5 108t-125 38.5t-125 -38.5t-83.5 -108
t-29.5 -160.5t29.5 -160t83.5 -107.5t125 -38.5zM253 754l115 140h54l114 -140h-49l-92 69l-95 -69h-47z" />
    <glyph glyph-name="Otilde" unicode="&#xd5;" horiz-adv-x="785" 
d="M393 -12q-99 0 -178 46.5t-123.5 128.5t-44.5 184t44.5 184t123.5 129t178 47q100 0 178.5 -47t122.5 -129t44 -184t-44 -184t-122.5 -128.5t-178.5 -46.5zM393 41q71 0 125 38.5t83.5 107.5t29.5 160t-29.5 160.5t-83.5 108t-125 38.5t-125 -38.5t-83.5 -108
t-29.5 -160.5t29.5 -160t83.5 -107.5t125 -38.5zM458 758q-20 0 -36.5 7.5t-36.5 21.5l-17 13q-15 11 -25.5 15t-22.5 4q-20 0 -31 -13.5t-17 -43.5h-37q4 59 30 88t63 29q21 0 37 -7t36 -22l17 -12q16 -11 25.5 -15t22.5 -4q19 0 30 13.5t18 43.5h37q-4 -59 -30.5 -88.5
t-62.5 -29.5z" />
    <glyph glyph-name="Odieresis" unicode="&#xd6;" horiz-adv-x="785" 
d="M393 -12q-99 0 -178 46.5t-123.5 128.5t-44.5 184t44.5 184t123.5 129t178 47q100 0 178.5 -47t122.5 -129t44 -184t-44 -184t-122.5 -128.5t-178.5 -46.5zM393 41q71 0 125 38.5t83.5 107.5t29.5 160t-29.5 160.5t-83.5 108t-125 38.5t-125 -38.5t-83.5 -108
t-29.5 -160.5t29.5 -160t83.5 -107.5t125 -38.5zM302 767q-26 0 -43 17.5t-17 43.5q0 25 17.5 42.5t42.5 17.5q24 0 42 -17.5t18 -42.5q0 -26 -17.5 -43.5t-42.5 -17.5zM486 767q-26 0 -43 17.5t-17 43.5q0 25 17.5 42.5t42.5 17.5q24 0 42 -17.5t18 -42.5
q0 -26 -17.5 -43.5t-42.5 -17.5z" />
    <glyph glyph-name="Oslash" unicode="&#xd8;" horiz-adv-x="789" 
d="M395 -12q-99 0 -178 46.5t-123.5 128.5t-44.5 184t44.5 184t123.5 129t178 47q100 0 178.5 -47t122.5 -129t44 -184t-44 -184t-122.5 -128.5t-178.5 -46.5zM395 41q71 0 125 38.5t83.5 107.5t29.5 160t-29.5 160.5t-83.5 108t-125 38.5t-125 -38.5t-83.5 -108
t-29.5 -160.5t29.5 -160t83.5 -107.5t125 -38.5zM117 -41l-37 29l593 747l36 -29z" />
    <glyph glyph-name="Ugrave" unicode="&#xd9;" horiz-adv-x="758" 
d="M380 -12q-86 0 -147.5 35.5t-93.5 100.5t-32 154v296q0 39 -5.5 58t-18.5 26.5t-40 11.5v25h221v-25q-27 -4 -40.5 -11.5t-19 -26.5t-5.5 -58v-292q0 -71 23.5 -120.5t68 -75.5t106.5 -26q91 0 145.5 57.5t54.5 161.5v295q0 39 -5 57.5t-18 26.5t-41 12v25h182v-25
q-28 -4 -41 -12t-18 -27.5t-5 -58.5v-292q0 -88 -32 -154t-93.5 -102t-145.5 -36zM440 754h-41l-125 137v3h114z" />
    <glyph glyph-name="Uacute" unicode="&#xda;" horiz-adv-x="758" 
d="M380 -12q-86 0 -147.5 35.5t-93.5 100.5t-32 154v296q0 39 -5.5 58t-18.5 26.5t-40 11.5v25h221v-25q-27 -4 -40.5 -11.5t-19 -26.5t-5.5 -58v-292q0 -71 23.5 -120.5t68 -75.5t106.5 -26q91 0 145.5 57.5t54.5 161.5v295q0 39 -5 57.5t-18 26.5t-41 12v25h182v-25
q-28 -4 -41 -12t-18 -27.5t-5 -58.5v-292q0 -88 -32 -154t-93.5 -102t-145.5 -36zM349 754l51 140h115v-3l-127 -137h-39z" />
    <glyph glyph-name="Ucircumflex" unicode="&#xdb;" horiz-adv-x="758" 
d="M380 -12q-86 0 -147.5 35.5t-93.5 100.5t-32 154v296q0 39 -5.5 58t-18.5 26.5t-40 11.5v25h221v-25q-27 -4 -40.5 -11.5t-19 -26.5t-5.5 -58v-292q0 -71 23.5 -120.5t68 -75.5t106.5 -26q91 0 145.5 57.5t54.5 161.5v295q0 39 -5 57.5t-18 26.5t-41 12v25h182v-25
q-28 -4 -41 -12t-18 -27.5t-5 -58.5v-292q0 -88 -32 -154t-93.5 -102t-145.5 -36zM254 754l115 140h54l114 -140h-49l-92 69l-95 -69h-47z" />
    <glyph glyph-name="Udieresis" unicode="&#xdc;" horiz-adv-x="758" 
d="M380 -12q-86 0 -147.5 35.5t-93.5 100.5t-32 154v296q0 39 -5.5 58t-18.5 26.5t-40 11.5v25h221v-25q-27 -4 -40.5 -11.5t-19 -26.5t-5.5 -58v-292q0 -71 23.5 -120.5t68 -75.5t106.5 -26q91 0 145.5 57.5t54.5 161.5v295q0 39 -5 57.5t-18 26.5t-41 12v25h182v-25
q-28 -4 -41 -12t-18 -27.5t-5 -58.5v-292q0 -88 -32 -154t-93.5 -102t-145.5 -36zM303 767q-26 0 -43 17.5t-17 43.5q0 25 17.5 42.5t42.5 17.5q24 0 42 -17.5t18 -42.5q0 -26 -17.5 -43.5t-42.5 -17.5zM487 767q-26 0 -43 17.5t-17 43.5q0 25 17.5 42.5t42.5 17.5
q24 0 42 -17.5t18 -42.5q0 -26 -17.5 -43.5t-42.5 -17.5z" />
    <glyph glyph-name="Yacute" unicode="&#xdd;" horiz-adv-x="679" 
d="M295 122v211l23 -85l-202 329q-27 45 -47 65t-55 28v25h222v-25q-25 -7 -31.5 -19.5t0 -31.5t25.5 -51l129 -213h6l134 213q20 32 26.5 51t0 31.5t-30.5 19.5v25h181v-25q-39 -9 -61.5 -31t-52.5 -69l-201 -318l26 87v-217q0 -38 5.5 -57t18.5 -27t40 -13v-25h-220v25
q27 5 40 13t18.5 27t5.5 57zM312 754l51 140h115v-3l-127 -137h-39z" />
    <glyph glyph-name="Thorn" unicode="&#xde;" horiz-adv-x="600" 
d="M120 574q0 38 -5.5 57t-19 27.5t-39.5 11.5v25h220v-25q-26 -3 -39.5 -11.5t-19 -27.5t-5.5 -57v-452q0 -38 5.5 -57t18.5 -27.5t40 -12.5v-25h-220v25q27 4 40 12.5t18.5 27.5t5.5 57v452zM169 146v403h137q76 0 134.5 -24t90.5 -69.5t32 -106.5t-32 -107t-90.5 -71
t-134.5 -25h-137zM282 196q84 0 131 38.5t47 114.5q0 75 -46.5 112.5t-131.5 37.5h-70v-303h70z" />
    <glyph glyph-name="germandbls" unicode="&#xdf;" horiz-adv-x="553" 
d="M305 -10q-22 0 -43 5t-40 14l13 36q23 -9 49 -9q38 0 68 19t47 54t17 81q0 79 -47.5 120t-127.5 43v45q41 1 73 19.5t50 53t18 80.5q0 57 -26 90t-72 33q-54 0 -82 -35t-28 -102v-537h-129v25q19 3 28 9.5t12 20.5t3 44v410q0 98 53.5 155.5t145.5 57.5q56 0 98.5 -21
t65.5 -59t23 -88q0 -63 -41 -110t-111 -63v-6q87 -12 139 -62.5t52 -127.5q0 -61 -28 -105t-75.5 -67t-104.5 -23z" />
    <glyph glyph-name="agrave" unicode="&#xe0;" horiz-adv-x="493" 
d="M164 -12q-50 0 -84.5 32.5t-34.5 82.5q0 53 40.5 84.5t120.5 53.5l107 30l2 -42l-81 -29q-53 -19 -76.5 -35.5t-23.5 -47.5q0 -30 19.5 -47.5t48.5 -17.5q33 0 60.5 22.5t48.5 55.5v181q0 55 -27 82t-75 27q-35 0 -70 -12t-70 -35l-19 25q40 40 88.5 63.5t98.5 23.5
q47 0 83 -19.5t56.5 -58.5t20.5 -96v-224q0 -24 9 -35.5t25 -11.5q17 0 33 9l15 -23q-21 -18 -44 -27t-47 -9q-31 0 -53 20t-22 55v4h-6q-29 -41 -64 -61t-79 -20zM276 551h-41l-125 137v3h114z" />
    <glyph glyph-name="aacute" unicode="&#xe1;" horiz-adv-x="493" 
d="M164 -12q-50 0 -84.5 32.5t-34.5 82.5q0 53 40.5 84.5t120.5 53.5l107 30l2 -42l-81 -29q-53 -19 -76.5 -35.5t-23.5 -47.5q0 -30 19.5 -47.5t48.5 -17.5q33 0 60.5 22.5t48.5 55.5v181q0 55 -27 82t-75 27q-35 0 -70 -12t-70 -35l-19 25q40 40 88.5 63.5t98.5 23.5
q47 0 83 -19.5t56.5 -58.5t20.5 -96v-224q0 -24 9 -35.5t25 -11.5q17 0 33 9l15 -23q-21 -18 -44 -27t-47 -9q-31 0 -53 20t-22 55v4h-6q-29 -41 -64 -61t-79 -20zM188 551l51 140h115v-3l-127 -137h-39z" />
    <glyph glyph-name="acircumflex" unicode="&#xe2;" horiz-adv-x="493" 
d="M164 -12q-50 0 -84.5 32.5t-34.5 82.5q0 53 40.5 84.5t120.5 53.5l107 30l2 -42l-81 -29q-53 -19 -76.5 -35.5t-23.5 -47.5q0 -30 19.5 -47.5t48.5 -17.5q33 0 60.5 22.5t48.5 55.5v181q0 55 -27 82t-75 27q-35 0 -70 -12t-70 -35l-19 25q40 40 88.5 63.5t98.5 23.5
q47 0 83 -19.5t56.5 -58.5t20.5 -96v-224q0 -24 9 -35.5t25 -11.5q17 0 33 9l15 -23q-21 -18 -44 -27t-47 -9q-31 0 -53 20t-22 55v4h-6q-29 -41 -64 -61t-79 -20zM90 551l115 140h54l114 -140h-49l-92 69l-95 -69h-47z" />
    <glyph glyph-name="atilde" unicode="&#xe3;" horiz-adv-x="493" 
d="M164 -12q-50 0 -84.5 32.5t-34.5 82.5q0 53 40.5 84.5t120.5 53.5l107 30l2 -42l-81 -29q-53 -19 -76.5 -35.5t-23.5 -47.5q0 -30 19.5 -47.5t48.5 -17.5q33 0 60.5 22.5t48.5 55.5v181q0 55 -27 82t-75 27q-35 0 -70 -12t-70 -35l-19 25q40 40 88.5 63.5t98.5 23.5
q47 0 83 -19.5t56.5 -58.5t20.5 -96v-224q0 -24 9 -35.5t25 -11.5q17 0 33 9l15 -23q-21 -18 -44 -27t-47 -9q-31 0 -53 20t-22 55v4h-6q-29 -41 -64 -61t-79 -20zM297 555q-20 0 -36.5 7.5t-36.5 21.5l-17 13q-15 11 -25.5 15t-22.5 4q-20 0 -31 -13.5t-17 -43.5h-37
q4 59 30 88t63 29q21 0 37 -7t36 -22l17 -12q16 -11 25.5 -15t22.5 -4q19 0 30 13.5t18 43.5h37q-4 -59 -30.5 -88.5t-62.5 -29.5z" />
    <glyph glyph-name="adieresis" unicode="&#xe4;" horiz-adv-x="493" 
d="M164 -12q-50 0 -84.5 32.5t-34.5 82.5q0 53 40.5 84.5t120.5 53.5l107 30l2 -42l-81 -29q-53 -19 -76.5 -35.5t-23.5 -47.5q0 -30 19.5 -47.5t48.5 -17.5q33 0 60.5 22.5t48.5 55.5v181q0 55 -27 82t-75 27q-35 0 -70 -12t-70 -35l-19 25q40 40 88.5 63.5t98.5 23.5
q47 0 83 -19.5t56.5 -58.5t20.5 -96v-224q0 -24 9 -35.5t25 -11.5q17 0 33 9l15 -23q-21 -18 -44 -27t-47 -9q-31 0 -53 20t-22 55v4h-6q-29 -41 -64 -61t-79 -20zM139 564q-26 0 -43 17.5t-17 43.5q0 25 17.5 42.5t42.5 17.5q24 0 42 -17.5t18 -42.5q0 -26 -17.5 -43.5
t-42.5 -17.5zM323 564q-26 0 -43 17.5t-17 43.5q0 25 17.5 42.5t42.5 17.5q24 0 42 -17.5t18 -42.5q0 -26 -17.5 -43.5t-42.5 -17.5z" />
    <glyph glyph-name="aring" unicode="&#xe5;" horiz-adv-x="493" 
d="M164 -12q-50 0 -84.5 32.5t-34.5 82.5q0 53 40.5 84.5t120.5 53.5l107 30l2 -42l-81 -29q-53 -19 -76.5 -35.5t-23.5 -47.5q0 -30 19.5 -47.5t48.5 -17.5q33 0 60.5 22.5t48.5 55.5v181q0 55 -27 82t-75 27q-35 0 -70 -12t-70 -35l-19 25q40 40 88.5 63.5t98.5 23.5
q47 0 83 -19.5t56.5 -58.5t20.5 -96v-224q0 -24 9 -35.5t25 -11.5q17 0 33 9l15 -23q-21 -18 -44 -27t-47 -9q-31 0 -53 20t-22 55v4h-6q-29 -41 -64 -61t-79 -20zM232 530q-40 0 -68 27.5t-28 66.5t28 66.5t68 27.5q39 0 67 -27.5t28 -66.5t-28 -66.5t-67 -27.5zM232 570
q23 0 37.5 15t14.5 39t-14.5 39t-37.5 15t-38 -15t-15 -39t15 -39t38 -15z" />
    <glyph glyph-name="ae" unicode="&#xe6;" horiz-adv-x="765" 
d="M167 -12q-53 0 -87.5 32.5t-34.5 84.5q0 51 40 82t114 52l124 35l-3 -43l-89 -32q-33 -12 -53 -22t-32 -24.5t-12 -35.5q0 -30 19.5 -47.5t47.5 -17.5q32 0 59.5 20.5t50.5 58.5v180q0 55 -27 82t-77 27q-34 0 -70.5 -13.5t-67.5 -33.5l-19 25q38 39 87 63t99 24
q47 0 81 -18t53 -54h6q29 34 69.5 53t86.5 19q53 0 95 -21.5t65.5 -64t23.5 -102.5v-29h-325l1 46h237q0 56 -28 89t-75 33q-38 0 -66.5 -19.5t-44.5 -57.5t-16 -91q0 -66 22.5 -112.5t62 -70.5t91.5 -24q43 0 75.5 12t64.5 36l22 -22q-41 -51 -87 -75t-105 -24
q-63 0 -115 30t-79 83h-6q-36 -57 -80 -85t-98 -28z" />
    <glyph glyph-name="ccedilla" unicode="&#xe7;" horiz-adv-x="473" 
d="M275 -12q-67 0 -120 31.5t-83 87t-30 124.5q0 71 31 129t86 91.5t124 33.5q34 0 68 -7.5t61 -21.5v-108h-26q-10 40 -38 64t-66 24q-46 0 -80 -24.5t-52.5 -66.5t-18.5 -93q0 -60 22 -103t60.5 -65.5t87.5 -22.5q41 0 73 12.5t62 35.5l22 -22q-40 -48 -84.5 -73.5
t-98.5 -25.5zM255 -203q-31 0 -56 12.5t-49 39.5l17 19q33 -30 71 -30q27 0 42.5 12t15.5 32q0 17 -12.5 27t-31.5 10q-21 0 -38 -12l-3 2l37 99l28 -8l-19 -52l2 -1q11 3 25 3q29 0 50.5 -18t21.5 -50q0 -36 -28.5 -60.5t-72.5 -24.5z" />
    <glyph glyph-name="egrave" unicode="&#xe8;" horiz-adv-x="495" 
d="M277 -12q-65 0 -119 30.5t-85 87t-31 131.5q0 70 28.5 126.5t78.5 89t112 32.5q53 0 94.5 -21.5t65.5 -64t24 -102.5v-29h-334v46h292l-46 -27q4 44 -7 77.5t-36 52.5t-60 19q-39 0 -67.5 -20.5t-43.5 -58.5t-15 -91q0 -65 22.5 -111t62.5 -70t93 -24q43 0 75 12t63 36
l22 -22q-42 -50 -86.5 -74.5t-102.5 -24.5zM302 551h-41l-125 137v3h114z" />
    <glyph glyph-name="eacute" unicode="&#xe9;" horiz-adv-x="495" 
d="M277 -12q-65 0 -119 30.5t-85 87t-31 131.5q0 70 28.5 126.5t78.5 89t112 32.5q53 0 94.5 -21.5t65.5 -64t24 -102.5v-29h-334v46h292l-46 -27q4 44 -7 77.5t-36 52.5t-60 19q-39 0 -67.5 -20.5t-43.5 -58.5t-15 -91q0 -65 22.5 -111t62.5 -70t93 -24q43 0 75 12t63 36
l22 -22q-42 -50 -86.5 -74.5t-102.5 -24.5zM214 551l51 140h115v-3l-127 -137h-39z" />
    <glyph glyph-name="ecircumflex" unicode="&#xea;" horiz-adv-x="495" 
d="M277 -12q-65 0 -119 30.5t-85 87t-31 131.5q0 70 28.5 126.5t78.5 89t112 32.5q53 0 94.5 -21.5t65.5 -64t24 -102.5v-29h-334v46h292l-46 -27q4 44 -7 77.5t-36 52.5t-60 19q-39 0 -67.5 -20.5t-43.5 -58.5t-15 -91q0 -65 22.5 -111t62.5 -70t93 -24q43 0 75 12t63 36
l22 -22q-42 -50 -86.5 -74.5t-102.5 -24.5zM116 551l115 140h54l114 -140h-49l-92 69l-95 -69h-47z" />
    <glyph glyph-name="edieresis" unicode="&#xeb;" horiz-adv-x="495" 
d="M277 -12q-65 0 -119 30.5t-85 87t-31 131.5q0 70 28.5 126.5t78.5 89t112 32.5q53 0 94.5 -21.5t65.5 -64t24 -102.5v-29h-334v46h292l-46 -27q4 44 -7 77.5t-36 52.5t-60 19q-39 0 -67.5 -20.5t-43.5 -58.5t-15 -91q0 -65 22.5 -111t62.5 -70t93 -24q43 0 75 12t63 36
l22 -22q-42 -50 -86.5 -74.5t-102.5 -24.5zM165 564q-26 0 -43 17.5t-17 43.5q0 25 17.5 42.5t42.5 17.5q24 0 42 -17.5t18 -42.5q0 -26 -17.5 -43.5t-42.5 -17.5zM349 564q-26 0 -43 17.5t-17 43.5q0 25 17.5 42.5t42.5 17.5q24 0 42 -17.5t18 -42.5q0 -26 -17.5 -43.5
t-42.5 -17.5z" />
    <glyph glyph-name="igrave" unicode="&#xec;" horiz-adv-x="270" 
d="M181 102q0 -31 3 -45.5t12 -21t28 -10.5v-25h-172v25q20 4 28.5 10.5t11.5 21t3 45.5v270q0 24 -4.5 35.5t-14.5 16t-31 6.5v25l130 23h6v-376zM181 551h-41l-125 137v3h114z" />
    <glyph glyph-name="iacute" unicode="&#xed;" horiz-adv-x="270" 
d="M181 102q0 -31 3 -45.5t12 -21t28 -10.5v-25h-172v25q20 4 28.5 10.5t11.5 21t3 45.5v270q0 24 -4.5 35.5t-14.5 16t-31 6.5v25l130 23h6v-376zM92 551l51 140h115v-3l-127 -137h-39z" />
    <glyph glyph-name="icircumflex" unicode="&#xee;" horiz-adv-x="270" 
d="M181 102q0 -31 3 -45.5t12 -21t28 -10.5v-25h-172v25q20 4 28.5 10.5t11.5 21t3 45.5v270q0 24 -4.5 35.5t-14.5 16t-31 6.5v25l130 23h6v-376zM-6 551l115 140h54l114 -140h-49l-92 69l-95 -69h-47z" />
    <glyph glyph-name="idieresis" unicode="&#xef;" horiz-adv-x="270" 
d="M181 102q0 -31 3 -45.5t12 -21t28 -10.5v-25h-172v25q20 4 28.5 10.5t11.5 21t3 45.5v270q0 24 -4.5 35.5t-14.5 16t-31 6.5v25l130 23h6v-376zM43 564q-26 0 -43 17.5t-17 43.5q0 25 17.5 42.5t42.5 17.5q24 0 42 -17.5t18 -42.5q0 -26 -17.5 -43.5t-42.5 -17.5z
M227 564q-26 0 -43 17.5t-17 43.5q0 25 17.5 42.5t42.5 17.5q24 0 42 -17.5t18 -42.5q0 -26 -17.5 -43.5t-42.5 -17.5z" />
    <glyph glyph-name="eth" unicode="&#xf0;" horiz-adv-x="572" 
d="M268 -12q-64 0 -115.5 33.5t-81 91.5t-29.5 129q0 69 30 124.5t81 87t111 31.5q53 0 95.5 -28.5t70.5 -82.5h6q-8 123 -74.5 199.5t-172.5 114.5l14 34q95 -26 166 -80.5t111 -136.5t40 -187q0 -90 -30.5 -165.5t-88 -120t-133.5 -44.5zM271 33q43 0 77 27t54 82t20 135
v36q-15 46 -52 78.5t-88 32.5q-42 0 -76.5 -23t-54.5 -67t-20 -102q0 -56 18 -101.5t50 -71.5t72 -26zM184 522l-18 38l296 131l18 -38z" />
    <glyph glyph-name="ntilde" unicode="&#xf1;" horiz-adv-x="563" 
d="M95 372q0 24 -4.5 35.5t-14.5 16t-31 6.5v25l130 23h6v-79h6q31 43 65 64.5t79 21.5q43 0 77 -19.5t53.5 -59t19.5 -96.5v-207q0 -32 3 -46.5t11.5 -21t28.5 -10.5v-25h-172v25q19 4 28 10.5t12 21.5t3 46v206q0 36 -12 60.5t-32 37t-46 12.5q-41 0 -71.5 -25.5
t-52.5 -63.5v-227q0 -31 3.5 -46t12.5 -21.5t27 -10.5v-25h-172v25q20 4 28.5 10.5t11.5 21t3 46.5v269zM354 555q-20 0 -36.5 7.5t-36.5 21.5l-17 13q-15 11 -25.5 15t-22.5 4q-20 0 -31 -13.5t-17 -43.5h-37q4 59 30 88t63 29q21 0 37 -7t36 -22l17 -12q16 -11 25.5 -15
t22.5 -4q19 0 30 13.5t18 43.5h37q-4 -59 -30.5 -88.5t-62.5 -29.5z" />
    <glyph glyph-name="ograve" unicode="&#xf2;" horiz-adv-x="555" 
d="M278 -12q-68 0 -121.5 32t-84 88.5t-30.5 128.5t30.5 128.5t84 88t121.5 31.5t121.5 -31.5t83.5 -88t30 -128.5t-30 -128.5t-83.5 -88.5t-121.5 -32zM278 40q42 0 73 23.5t48 67.5t17 106q0 61 -17 105t-48 67.5t-73 23.5q-43 0 -74 -24t-48 -68t-17 -104t16.5 -104.5
t48 -68.5t74.5 -24zM322 551h-41l-125 137v3h114z" />
    <glyph glyph-name="oacute" unicode="&#xf3;" horiz-adv-x="555" 
d="M278 -12q-68 0 -121.5 32t-84 88.5t-30.5 128.5t30.5 128.5t84 88t121.5 31.5t121.5 -31.5t83.5 -88t30 -128.5t-30 -128.5t-83.5 -88.5t-121.5 -32zM278 40q42 0 73 23.5t48 67.5t17 106q0 61 -17 105t-48 67.5t-73 23.5q-43 0 -74 -24t-48 -68t-17 -104t16.5 -104.5
t48 -68.5t74.5 -24zM234 551l51 140h115v-3l-127 -137h-39z" />
    <glyph glyph-name="ocircumflex" unicode="&#xf4;" horiz-adv-x="555" 
d="M278 -12q-68 0 -121.5 32t-84 88.5t-30.5 128.5t30.5 128.5t84 88t121.5 31.5t121.5 -31.5t83.5 -88t30 -128.5t-30 -128.5t-83.5 -88.5t-121.5 -32zM278 40q42 0 73 23.5t48 67.5t17 106q0 61 -17 105t-48 67.5t-73 23.5q-43 0 -74 -24t-48 -68t-17 -104t16.5 -104.5
t48 -68.5t74.5 -24zM136 551l115 140h54l114 -140h-49l-92 69l-95 -69h-47z" />
    <glyph glyph-name="otilde" unicode="&#xf5;" horiz-adv-x="555" 
d="M278 -12q-68 0 -121.5 32t-84 88.5t-30.5 128.5t30.5 128.5t84 88t121.5 31.5t121.5 -31.5t83.5 -88t30 -128.5t-30 -128.5t-83.5 -88.5t-121.5 -32zM278 40q42 0 73 23.5t48 67.5t17 106q0 61 -17 105t-48 67.5t-73 23.5q-43 0 -74 -24t-48 -68t-17 -104t16.5 -104.5
t48 -68.5t74.5 -24zM343 555q-20 0 -36.5 7.5t-36.5 21.5l-17 13q-15 11 -25.5 15t-22.5 4q-20 0 -31 -13.5t-17 -43.5h-37q4 59 30 88t63 29q21 0 37 -7t36 -22l17 -12q16 -11 25.5 -15t22.5 -4q19 0 30 13.5t18 43.5h37q-4 -59 -30.5 -88.5t-62.5 -29.5z" />
    <glyph glyph-name="odieresis" unicode="&#xf6;" horiz-adv-x="555" 
d="M278 -12q-68 0 -121.5 32t-84 88.5t-30.5 128.5t30.5 128.5t84 88t121.5 31.5t121.5 -31.5t83.5 -88t30 -128.5t-30 -128.5t-83.5 -88.5t-121.5 -32zM278 40q42 0 73 23.5t48 67.5t17 106q0 61 -17 105t-48 67.5t-73 23.5q-43 0 -74 -24t-48 -68t-17 -104t16.5 -104.5
t48 -68.5t74.5 -24zM185 564q-26 0 -43 17.5t-17 43.5q0 25 17.5 42.5t42.5 17.5q24 0 42 -17.5t18 -42.5q0 -26 -17.5 -43.5t-42.5 -17.5zM369 564q-26 0 -43 17.5t-17 43.5q0 25 17.5 42.5t42.5 17.5q24 0 42 -17.5t18 -42.5q0 -26 -17.5 -43.5t-42.5 -17.5z" />
    <glyph glyph-name="oslash" unicode="&#xf8;" horiz-adv-x="560" 
d="M281 -12q-68 0 -121.5 32t-84 88.5t-30.5 128.5t30.5 128.5t84 88t121.5 31.5t121.5 -31.5t83.5 -88t30 -128.5t-30 -128.5t-83.5 -88.5t-121.5 -32zM281 40q42 0 73 23.5t48 67.5t17 106q0 61 -17 105t-48 67.5t-73 23.5q-43 0 -74 -24t-48 -68t-17 -104t16.5 -104.5
t48 -68.5t74.5 -24zM93 -40l-34 26l409 525l33 -26z" />
    <glyph glyph-name="ugrave" unicode="&#xf9;" horiz-adv-x="548" 
d="M224 -12q-38 0 -69.5 18.5t-50 55t-18.5 89.5v217q0 28 -4 43.5t-14 24t-29 12.5v25h133v0v-318q0 -50 22 -75.5t58 -25.5q39 0 69.5 26.5t49.5 64.5v224q0 41 -10 58t-38 21v25h134v0v-369q0 -26 3 -37t11.5 -15.5t28.5 -6.5v-25l-124 -25h-5v76h-6q-24 -36 -60 -59.5
t-81 -23.5zM315 551h-41l-125 137v3h114z" />
    <glyph glyph-name="uacute" unicode="&#xfa;" horiz-adv-x="548" 
d="M224 -12q-38 0 -69.5 18.5t-50 55t-18.5 89.5v217q0 28 -4 43.5t-14 24t-29 12.5v25h133v0v-318q0 -50 22 -75.5t58 -25.5q39 0 69.5 26.5t49.5 64.5v224q0 41 -10 58t-38 21v25h134v0v-369q0 -26 3 -37t11.5 -15.5t28.5 -6.5v-25l-124 -25h-5v76h-6q-24 -36 -60 -59.5
t-81 -23.5zM227 551l51 140h115v-3l-127 -137h-39z" />
    <glyph glyph-name="ucircumflex" unicode="&#xfb;" horiz-adv-x="548" 
d="M224 -12q-38 0 -69.5 18.5t-50 55t-18.5 89.5v217q0 28 -4 43.5t-14 24t-29 12.5v25h133v0v-318q0 -50 22 -75.5t58 -25.5q39 0 69.5 26.5t49.5 64.5v224q0 41 -10 58t-38 21v25h134v0v-369q0 -26 3 -37t11.5 -15.5t28.5 -6.5v-25l-124 -25h-5v76h-6q-24 -36 -60 -59.5
t-81 -23.5zM129 551l115 140h54l114 -140h-49l-92 69l-95 -69h-47z" />
    <glyph glyph-name="udieresis" unicode="&#xfc;" horiz-adv-x="548" 
d="M224 -12q-38 0 -69.5 18.5t-50 55t-18.5 89.5v217q0 28 -4 43.5t-14 24t-29 12.5v25h133v0v-318q0 -50 22 -75.5t58 -25.5q39 0 69.5 26.5t49.5 64.5v224q0 41 -10 58t-38 21v25h134v0v-369q0 -26 3 -37t11.5 -15.5t28.5 -6.5v-25l-124 -25h-5v76h-6q-24 -36 -60 -59.5
t-81 -23.5zM178 564q-26 0 -43 17.5t-17 43.5q0 25 17.5 42.5t42.5 17.5q24 0 42 -17.5t18 -42.5q0 -26 -17.5 -43.5t-42.5 -17.5zM362 564q-26 0 -43 17.5t-17 43.5q0 25 17.5 42.5t42.5 17.5q24 0 42 -17.5t18 -42.5q0 -26 -17.5 -43.5t-42.5 -17.5z" />
    <glyph glyph-name="yacute" unicode="&#xfd;" horiz-adv-x="506" 
d="M89 -214q-38 0 -65 15v80q32 -13 68 -13q44 0 77 22t53 75l151 393q11 29 14 44.5t-3.5 27t-28.5 18.5v25h146v-25q-32 -12 -48.5 -33t-32.5 -63l-164 -426q-30 -78 -73 -109t-94 -31zM82 355q-18 43 -33.5 62.5t-44.5 30.5v25h190v-25q-24 -7 -31.5 -17.5t-4.5 -26
t16 -46.5l100 -244h23l-59 -129zM226 551l51 140h115v-3l-127 -137h-39z" />
    <glyph glyph-name="thorn" unicode="&#xfe;" horiz-adv-x="560" 
d="M90 609q0 24 -4.5 35.5t-14.5 16t-31 6.5v25l130 23h6v-316h6q28 41 64 63.5t86 22.5q56 0 100.5 -30t70 -83.5t25.5 -121.5q0 -76 -30.5 -135.5t-82.5 -93t-114 -33.5q-34 0 -64.5 10t-54.5 30h-6v-131q0 -31 3 -44.5t12 -18.5t31 -9v-25h-175v25q20 4 28.5 9.5
t11.5 18.5t3 44v712zM296 35q42 0 74.5 24.5t50.5 69t18 101.5q0 86 -36.5 137t-98.5 51q-43 0 -75.5 -26t-52.5 -66v-136q0 -52 15.5 -87t42 -51.5t62.5 -16.5z" />
    <glyph glyph-name="ydieresis" unicode="&#xff;" horiz-adv-x="506" 
d="M89 -214q-38 0 -65 15v80q32 -13 68 -13q44 0 77 22t53 75l151 393q11 29 14 44.5t-3.5 27t-28.5 18.5v25h146v-25q-32 -12 -48.5 -33t-32.5 -63l-164 -426q-30 -78 -73 -109t-94 -31zM82 355q-18 43 -33.5 62.5t-44.5 30.5v25h190v-25q-24 -7 -31.5 -17.5t-4.5 -26
t16 -46.5l100 -244h23l-59 -129zM177 564q-26 0 -43 17.5t-17 43.5q0 25 17.5 42.5t42.5 17.5q24 0 42 -17.5t18 -42.5q0 -26 -17.5 -43.5t-42.5 -17.5zM361 564q-26 0 -43 17.5t-17 43.5q0 25 17.5 42.5t42.5 17.5q24 0 42 -17.5t18 -42.5q0 -26 -17.5 -43.5t-42.5 -17.5z
" />
    <glyph glyph-name="Amacron" unicode="&#x100;" horiz-adv-x="693" 
d="M6 25q33 4 49.5 25.5t36.5 73.5l224 571h55l234 -564q25 -60 40 -80.5t45 -25.5v-25h-219v25q28 2 40 14.5t10.5 33.5t-14.5 52l-180 442h-6l-174 -444q-13 -33 -14.5 -53t11.5 -31t43 -14v-25h-181v25zM164 222v50h319v-50h-319zM492 786v48h-296v-48h296z" />
    <glyph glyph-name="amacron" unicode="&#x101;" horiz-adv-x="493" 
d="M164 -12q-50 0 -84.5 32.5t-34.5 82.5q0 53 40.5 84.5t120.5 53.5l107 30l2 -42l-81 -29q-53 -19 -76.5 -35.5t-23.5 -47.5q0 -30 19.5 -47.5t48.5 -17.5q33 0 60.5 22.5t48.5 55.5v181q0 55 -27 82t-75 27q-35 0 -70 -12t-70 -35l-19 25q40 40 88.5 63.5t98.5 23.5
q47 0 83 -19.5t56.5 -58.5t20.5 -96v-224q0 -24 9 -35.5t25 -11.5q17 0 33 9l15 -23q-21 -18 -44 -27t-47 -9q-31 0 -53 20t-22 55v4h-6q-29 -41 -64 -61t-79 -20zM381 583v48h-296v-48h296z" />
    <glyph glyph-name="Abreve" unicode="&#x102;" horiz-adv-x="693" 
d="M6 25q33 4 49.5 25.5t36.5 73.5l224 571h55l234 -564q25 -60 40 -80.5t45 -25.5v-25h-219v25q28 2 40 14.5t10.5 33.5t-14.5 52l-180 442h-6l-174 -444q-13 -33 -14.5 -53t11.5 -31t43 -14v-25h-181v25zM164 222v50h319v-50h-319zM345 756q-53 0 -86 37.5t-35 100.5h39
q3 -34 25 -54.5t57 -20.5q36 0 57.5 20.5t24.5 54.5h39q-1 -63 -34.5 -100.5t-86.5 -37.5z" />
    <glyph glyph-name="abreve" unicode="&#x103;" horiz-adv-x="493" 
d="M164 -12q-50 0 -84.5 32.5t-34.5 82.5q0 53 40.5 84.5t120.5 53.5l107 30l2 -42l-81 -29q-53 -19 -76.5 -35.5t-23.5 -47.5q0 -30 19.5 -47.5t48.5 -17.5q33 0 60.5 22.5t48.5 55.5v181q0 55 -27 82t-75 27q-35 0 -70 -12t-70 -35l-19 25q40 40 88.5 63.5t98.5 23.5
q47 0 83 -19.5t56.5 -58.5t20.5 -96v-224q0 -24 9 -35.5t25 -11.5q17 0 33 9l15 -23q-21 -18 -44 -27t-47 -9q-31 0 -53 20t-22 55v4h-6q-29 -41 -64 -61t-79 -20zM232 553q-53 0 -86 37.5t-35 100.5h39q3 -34 25 -54.5t57 -20.5q36 0 57.5 20.5t24.5 54.5h39
q-1 -63 -34.5 -100.5t-86.5 -37.5z" />
    <glyph glyph-name="Aogonek" unicode="&#x104;" horiz-adv-x="693" 
d="M6 25q33 4 49.5 25.5t36.5 73.5l224 571h55l234 -564q25 -60 40 -80.5t45 -25.5v-25h-219v25q28 2 40 14.5t10.5 33.5t-14.5 52l-180 442h-6l-174 -444q-13 -33 -14.5 -53t11.5 -31t43 -14v-25h-181v25zM164 222v50h319v-50h-319zM581 -202q-40 0 -67 23.5t-27 62.5
q0 44 38.5 78t93.5 51l25 -13q-51 -24 -75 -49.5t-24 -54.5q0 -24 14 -39.5t39 -15.5q27 0 50 18l17 -19q-17 -21 -37.5 -31.5t-46.5 -10.5z" />
    <glyph glyph-name="aogonek" unicode="&#x105;" horiz-adv-x="493" 
d="M164 -12q-50 0 -84.5 32.5t-34.5 82.5q0 53 40.5 84.5t120.5 53.5l107 30l2 -42l-81 -29q-53 -19 -76.5 -35.5t-23.5 -47.5q0 -30 19.5 -47.5t48.5 -17.5q33 0 60.5 22.5t48.5 55.5v181q0 55 -27 82t-75 27q-35 0 -70 -12t-70 -35l-19 25q40 40 88.5 63.5t98.5 23.5
q47 0 83 -19.5t56.5 -58.5t20.5 -96v-224q0 -24 9 -35.5t25 -11.5q17 0 33 9l15 -23q-21 -18 -44 -27t-47 -9q-31 0 -53 20t-22 55v4h-6q-29 -41 -64 -61t-79 -20zM381 -199q-40 0 -67 23.5t-27 62.5q0 44 38.5 78t93.5 51l25 -13q-51 -24 -75 -49.5t-24 -54.5
q0 -24 14 -39.5t39 -15.5q28 0 50 18l17 -19q-17 -21 -37.5 -31.5t-46.5 -10.5z" />
    <glyph glyph-name="Cacute" unicode="&#x106;" horiz-adv-x="689" 
d="M399 -12q-93 0 -173.5 42.5t-129.5 123.5t-49 191q0 109 50.5 191.5t134 126.5t179.5 44q60 0 110.5 -13t94.5 -37v-148h-27q-24 71 -70.5 108t-111.5 37q-72 0 -130 -38t-90.5 -104.5t-32.5 -150.5q0 -93 36.5 -159.5t99 -101t141.5 -34.5q65 0 118 22t101 65l23 -23
q-56 -71 -121.5 -106.5t-152.5 -35.5zM353 754l51 140h115v-3l-127 -137h-39z" />
    <glyph glyph-name="cacute" unicode="&#x107;" horiz-adv-x="473" 
d="M275 -12q-67 0 -120 31.5t-83 87t-30 124.5q0 71 31 129t86 91.5t124 33.5q34 0 68 -7.5t61 -21.5v-108h-26q-10 40 -38 64t-66 24q-46 0 -80 -24.5t-52.5 -66.5t-18.5 -93q0 -60 22 -103t60.5 -65.5t87.5 -22.5q41 0 73 12.5t62 35.5l22 -22q-40 -48 -84.5 -73.5
t-98.5 -25.5zM223 551l51 140h115v-3l-127 -137h-39z" />
    <glyph glyph-name="Ccircumflex" unicode="&#x108;" horiz-adv-x="689" 
d="M399 -12q-93 0 -173.5 42.5t-129.5 123.5t-49 191q0 109 50.5 191.5t134 126.5t179.5 44q60 0 110.5 -13t94.5 -37v-148h-27q-24 71 -70.5 108t-111.5 37q-72 0 -130 -38t-90.5 -104.5t-32.5 -150.5q0 -93 36.5 -159.5t99 -101t141.5 -34.5q65 0 118 22t101 65l23 -23
q-56 -71 -121.5 -106.5t-152.5 -35.5zM258 754l115 140h54l114 -140h-49l-92 69l-95 -69h-47z" />
    <glyph glyph-name="ccircumflex" unicode="&#x109;" horiz-adv-x="473" 
d="M275 -12q-67 0 -120 31.5t-83 87t-30 124.5q0 71 31 129t86 91.5t124 33.5q34 0 68 -7.5t61 -21.5v-108h-26q-10 40 -38 64t-66 24q-46 0 -80 -24.5t-52.5 -66.5t-18.5 -93q0 -60 22 -103t60.5 -65.5t87.5 -22.5q41 0 73 12.5t62 35.5l22 -22q-40 -48 -84.5 -73.5
t-98.5 -25.5zM125 551l115 140h54l114 -140h-49l-92 69l-95 -69h-47z" />
    <glyph glyph-name="Cdotaccent" unicode="&#x10a;" horiz-adv-x="689" 
d="M399 -12q-93 0 -173.5 42.5t-129.5 123.5t-49 191q0 109 50.5 191.5t134 126.5t179.5 44q60 0 110.5 -13t94.5 -37v-148h-27q-24 71 -70.5 108t-111.5 37q-72 0 -130 -38t-90.5 -104.5t-32.5 -150.5q0 -93 36.5 -159.5t99 -101t141.5 -34.5q65 0 118 22t101 65l23 -23
q-56 -71 -121.5 -106.5t-152.5 -35.5zM400 765q-26 0 -44 18t-18 45q0 26 18 44t44 18q25 0 43 -18.5t18 -43.5q0 -27 -17.5 -45t-43.5 -18z" />
    <glyph glyph-name="cdotaccent" unicode="&#x10b;" horiz-adv-x="473" 
d="M275 -12q-67 0 -120 31.5t-83 87t-30 124.5q0 71 31 129t86 91.5t124 33.5q34 0 68 -7.5t61 -21.5v-108h-26q-10 40 -38 64t-66 24q-46 0 -80 -24.5t-52.5 -66.5t-18.5 -93q0 -60 22 -103t60.5 -65.5t87.5 -22.5q41 0 73 12.5t62 35.5l22 -22q-40 -48 -84.5 -73.5
t-98.5 -25.5zM267 562q-26 0 -44 18t-18 45q0 26 18 44t44 18q25 0 43 -18.5t18 -43.5q0 -27 -17.5 -45t-43.5 -18z" />
    <glyph glyph-name="Ccaron" unicode="&#x10c;" horiz-adv-x="689" 
d="M399 -12q-93 0 -173.5 42.5t-129.5 123.5t-49 191q0 109 50.5 191.5t134 126.5t179.5 44q60 0 110.5 -13t94.5 -37v-148h-27q-24 71 -70.5 108t-111.5 37q-72 0 -130 -38t-90.5 -104.5t-32.5 -150.5q0 -93 36.5 -159.5t99 -101t141.5 -34.5q65 0 118 22t101 65l23 -23
q-56 -71 -121.5 -106.5t-152.5 -35.5zM538 894l-115 -140h-54l-114 140h49l92 -69l95 69h47z" />
    <glyph glyph-name="ccaron" unicode="&#x10d;" horiz-adv-x="473" 
d="M275 -12q-67 0 -120 31.5t-83 87t-30 124.5q0 71 31 129t86 91.5t124 33.5q34 0 68 -7.5t61 -21.5v-108h-26q-10 40 -38 64t-66 24q-46 0 -80 -24.5t-52.5 -66.5t-18.5 -93q0 -60 22 -103t60.5 -65.5t87.5 -22.5q41 0 73 12.5t62 35.5l22 -22q-40 -48 -84.5 -73.5
t-98.5 -25.5zM408 691l-115 -140h-54l-114 140h49l92 -69l95 69h47z" />
    <glyph glyph-name="Dcaron" unicode="&#x10e;" horiz-adv-x="761" 
d="M120 571q0 42 -6 62t-18.5 26.5t-39.5 10.5v25h280q112 0 197.5 -43.5t133 -122t47.5 -179.5q0 -103 -47.5 -182.5t-133 -123.5t-197.5 -44h-280v25q30 5 43 15t17 30t4 62v439zM311 50q94 0 160 35t101 102.5t35 162.5q0 93 -35 159.5t-101 101t-160 34.5h-99v-595h99z
M516 894l-115 -140h-54l-114 140h49l92 -69l95 69h47z" />
    <glyph glyph-name="dcaron" unicode="&#x10f;" horiz-adv-x="567" 
d="M238 -12q-53 0 -98 28.5t-71 82t-26 124.5q0 74 30 134t82 94t116 34q34 0 64 -10t54 -30h6v164q0 24 -4.5 35.5t-14.5 16t-31 6.5v25l130 23h6v-611q0 -26 3 -37t11.5 -15.5t28.5 -6.5v-25l-124 -25h-5v76h-6q-28 -41 -65.5 -62t-85.5 -21zM271 55q43 0 75 27t49 63v142
q0 46 -14 80t-40.5 52.5t-64.5 18.5q-42 0 -75 -24.5t-51 -69t-18 -100.5q0 -89 38.5 -139t100.5 -50zM529 520l71 119l16 -9q-13 -10 -33 -10q-21 0 -36.5 13.5t-15.5 35.5q0 21 14 35.5t35 14.5q25 0 40 -16t15 -41q0 -13 -4.5 -25t-13.5 -28l-0.5 -0.5l-0.5 -0.5l-49 -88
h-38z" />
    <glyph glyph-name="Dcroat" unicode="&#x110;" horiz-adv-x="768" 
d="M127 571q0 42 -6 62t-18.5 26.5t-39.5 10.5v25h280q112 0 197.5 -43.5t133 -122t47.5 -179.5q0 -103 -47.5 -182.5t-133 -123.5t-197.5 -44h-280v25q30 5 43 15t17 30t4 62v439zM318 50q94 0 160 35t101 102.5t35 162.5q0 93 -35 159.5t-101 101t-160 34.5h-99v-595h99z
M29 332v48h324v-48h-324z" />
    <glyph glyph-name="dcroat" unicode="&#x111;" horiz-adv-x="567" 
d="M238 -12q-53 0 -98 28.5t-71 82t-26 124.5q0 74 30 134t82 94t116 34q34 0 64 -10t54 -30h6v164q0 24 -4.5 35.5t-14.5 16t-31 6.5v25l130 23h6v-611q0 -26 3 -37t11.5 -15.5t28.5 -6.5v-25l-124 -25h-5v76h-6q-28 -41 -65.5 -62t-85.5 -21zM271 55q43 0 75 27t49 63v142
q0 46 -14 80t-40.5 52.5t-64.5 18.5q-42 0 -75 -24.5t-51 -69t-18 -100.5q0 -89 38.5 -139t100.5 -50zM254 583h295v-45h-295v45z" />
    <glyph glyph-name="Emacron" unicode="&#x112;" 
d="M589 172v-172h-534v25q27 5 40 13t18.5 27t5.5 57v452q0 38 -5 57t-18.5 27.5t-40.5 11.5v25h514v-147h-27q-3 36 -18.5 57t-46.5 30.5t-81 9.5h-185v-268h137q42 0 67.5 7.5t37.5 23.5t13 42h27v-196h-27q-1 27 -13 43t-37.5 23t-67.5 7h-137v-277h207q43 0 73.5 11
t49 38t21.5 73h27zM491 786v48h-296v-48h296z" />
    <glyph glyph-name="emacron" unicode="&#x113;" horiz-adv-x="495" 
d="M277 -12q-65 0 -119 30.5t-85 87t-31 131.5q0 70 28.5 126.5t78.5 89t112 32.5q53 0 94.5 -21.5t65.5 -64t24 -102.5v-29h-334v46h292l-46 -27q4 44 -7 77.5t-36 52.5t-60 19q-39 0 -67.5 -20.5t-43.5 -58.5t-15 -91q0 -65 22.5 -111t62.5 -70t93 -24q43 0 75 12t63 36
l22 -22q-42 -50 -86.5 -74.5t-102.5 -24.5zM407 583v48h-296v-48h296z" />
    <glyph glyph-name="Ebreve" unicode="&#x114;" 
d="M589 172v-172h-534v25q27 5 40 13t18.5 27t5.5 57v452q0 38 -5 57t-18.5 27.5t-40.5 11.5v25h514v-147h-27q-3 36 -18.5 57t-46.5 30.5t-81 9.5h-185v-268h137q42 0 67.5 7.5t37.5 23.5t13 42h27v-196h-27q-1 27 -13 43t-37.5 23t-67.5 7h-137v-277h207q43 0 73.5 11
t49 38t21.5 73h27zM344 756q-53 0 -86 37.5t-35 100.5h39q3 -34 25 -54.5t57 -20.5q36 0 57.5 20.5t24.5 54.5h39q-1 -63 -34.5 -100.5t-86.5 -37.5z" />
    <glyph glyph-name="ebreve" unicode="&#x115;" horiz-adv-x="495" 
d="M277 -12q-65 0 -119 30.5t-85 87t-31 131.5q0 70 28.5 126.5t78.5 89t112 32.5q53 0 94.5 -21.5t65.5 -64t24 -102.5v-29h-334v46h292l-46 -27q4 44 -7 77.5t-36 52.5t-60 19q-39 0 -67.5 -20.5t-43.5 -58.5t-15 -91q0 -65 22.5 -111t62.5 -70t93 -24q43 0 75 12t63 36
l22 -22q-42 -50 -86.5 -74.5t-102.5 -24.5zM258 553q-53 0 -86 37.5t-35 100.5h39q3 -34 25 -54.5t57 -20.5q36 0 57.5 20.5t24.5 54.5h39q-1 -63 -34.5 -100.5t-86.5 -37.5z" />
    <glyph glyph-name="Edotaccent" unicode="&#x116;" 
d="M589 172v-172h-534v25q27 5 40 13t18.5 27t5.5 57v452q0 38 -5 57t-18.5 27.5t-40.5 11.5v25h514v-147h-27q-3 36 -18.5 57t-46.5 30.5t-81 9.5h-185v-268h137q42 0 67.5 7.5t37.5 23.5t13 42h27v-196h-27q-1 27 -13 43t-37.5 23t-67.5 7h-137v-277h207q43 0 73.5 11
t49 38t21.5 73h27zM345 765q-26 0 -44 18t-18 45q0 26 18 44t44 18q25 0 43 -18.5t18 -43.5q0 -27 -17.5 -45t-43.5 -18z" />
    <glyph glyph-name="edotaccent" unicode="&#x117;" horiz-adv-x="495" 
d="M277 -12q-65 0 -119 30.5t-85 87t-31 131.5q0 70 28.5 126.5t78.5 89t112 32.5q53 0 94.5 -21.5t65.5 -64t24 -102.5v-29h-334v46h292l-46 -27q4 44 -7 77.5t-36 52.5t-60 19q-39 0 -67.5 -20.5t-43.5 -58.5t-15 -91q0 -65 22.5 -111t62.5 -70t93 -24q43 0 75 12t63 36
l22 -22q-42 -50 -86.5 -74.5t-102.5 -24.5zM258 562q-26 0 -44 18t-18 45q0 26 18 44t44 18q25 0 43 -18.5t18 -43.5q0 -27 -17.5 -45t-43.5 -18z" />
    <glyph glyph-name="Eogonek" unicode="&#x118;" 
d="M589 172v-172h-534v25q27 5 40 13t18.5 27t5.5 57v452q0 38 -5 57t-18.5 27.5t-40.5 11.5v25h514v-147h-27q-3 36 -18.5 57t-46.5 30.5t-81 9.5h-185v-268h137q42 0 67.5 7.5t37.5 23.5t13 42h27v-196h-27q-1 27 -13 43t-37.5 23t-67.5 7h-137v-277h207q43 0 73.5 11
t49 38t21.5 73h27zM526 -202q-40 0 -67 23.5t-27 62.5q0 44 38.5 78t93.5 51l25 -13q-51 -24 -75 -49.5t-24 -54.5q0 -24 14 -39.5t39 -15.5q28 0 50 18l17 -19q-17 -21 -37.5 -31.5t-46.5 -10.5z" />
    <glyph glyph-name="eogonek" unicode="&#x119;" horiz-adv-x="495" 
d="M271 -202q-40 0 -67 24t-27 62q0 33 22 59.5t58 45.5v4q-60 3 -109 33t-77.5 84.5t-28.5 126.5q0 70 28.5 126.5t78.5 89t113 32.5q53 0 94.5 -21.5t65 -64t23.5 -102.5v-29h-327l1 46h239q0 56 -28 89t-75 33q-39 0 -68 -20t-44 -58.5t-15 -91.5q0 -65 22.5 -111
t62.5 -70t92 -24q43 0 74.5 11.5t64.5 36.5l22 -22q-32 -39 -61 -59t-68 -32q-51 -16 -76.5 -43.5t-25.5 -56.5q0 -24 14.5 -39.5t39.5 -15.5q26 0 49 18l17 -19q-17 -22 -37.5 -32t-46.5 -10z" />
    <glyph glyph-name="Ecaron" unicode="&#x11a;" 
d="M589 172v-172h-534v25q27 5 40 13t18.5 27t5.5 57v452q0 38 -5 57t-18.5 27.5t-40.5 11.5v25h514v-147h-27q-3 36 -18.5 57t-46.5 30.5t-81 9.5h-185v-268h137q42 0 67.5 7.5t37.5 23.5t13 42h27v-196h-27q-1 27 -13 43t-37.5 23t-67.5 7h-137v-277h207q43 0 73.5 11
t49 38t21.5 73h27zM483 894l-115 -140h-54l-114 140h49l92 -69l95 69h47z" />
    <glyph glyph-name="ecaron" unicode="&#x11b;" horiz-adv-x="495" 
d="M277 -12q-65 0 -119 30.5t-85 87t-31 131.5q0 70 28.5 126.5t78.5 89t112 32.5q53 0 94.5 -21.5t65.5 -64t24 -102.5v-29h-334v46h292l-46 -27q4 44 -7 77.5t-36 52.5t-60 19q-39 0 -67.5 -20.5t-43.5 -58.5t-15 -91q0 -65 22.5 -111t62.5 -70t93 -24q43 0 75 12t63 36
l22 -22q-42 -50 -86.5 -74.5t-102.5 -24.5zM399 691l-115 -140h-54l-114 140h49l92 -69l95 69h47z" />
    <glyph glyph-name="Gcircumflex" unicode="&#x11c;" horiz-adv-x="739" 
d="M410 -12q-105 0 -188 45.5t-129 126.5t-46 183q0 103 50.5 186t140 130.5t201.5 47.5q66 0 124 -12.5t108 -37.5v-144h-28q-23 70 -75 105.5t-127 35.5q-88 0 -153 -40.5t-99.5 -110.5t-34.5 -158q0 -89 32 -158t92.5 -108t144.5 -39q43 0 81 9.5t79 29.5l-34 -44v201
q0 37 -8 56t-26 26.5t-52 10.5v25h237v-25q-24 -3 -36.5 -10.5t-17.5 -26.5t-5 -55v-179q-54 -34 -110.5 -52t-120.5 -18zM269 754l115 140h54l114 -140h-49l-92 69l-95 -69h-47z" />
    <glyph glyph-name="gcircumflex" unicode="&#x11d;" horiz-adv-x="526" 
d="M234 -214q-98 0 -154.5 34t-56.5 87q0 30 18.5 55.5t57.5 47.5v24l72 -28q-33 -13 -51 -34.5t-18 -48.5q0 -41 35 -66t101 -25q46 0 86 13.5t64 37t24 53.5q0 34 -25 50.5t-78 16.5h-152q-51 0 -80.5 26t-29.5 65q0 29 19.5 56.5t59.5 48.5v19l60 -32q-30 -11 -48 -27.5
t-18 -37.5q0 -18 15 -29.5t45 -11.5h149q79 0 124 -30t45 -88q0 -49 -33.5 -89.5t-94 -63.5t-136.5 -23zM249 168q-55 0 -97.5 20t-66 56t-23.5 82t24 82.5t66.5 56.5t96.5 20q33 0 68.5 -11.5t65.5 -35.5v-18q22 -13 36.5 -38t14.5 -57q0 -45 -23.5 -80.5t-65.5 -56
t-96 -20.5zM248 211q29 0 50.5 14t34 40t12.5 61q0 54 -27 85t-70 31q-28 0 -50 -14t-34 -40t-12 -62q0 -53 26.5 -84t69.5 -31zM333 426l-31 47l195 37h5v-84h-169zM112 551l115 140h54l114 -140h-49l-92 69l-95 -69h-47z" />
    <glyph glyph-name="Gbreve" unicode="&#x11e;" horiz-adv-x="739" 
d="M410 -12q-105 0 -188 45.5t-129 126.5t-46 183q0 103 50.5 186t140 130.5t201.5 47.5q66 0 124 -12.5t108 -37.5v-144h-28q-23 70 -75 105.5t-127 35.5q-88 0 -153 -40.5t-99.5 -110.5t-34.5 -158q0 -89 32 -158t92.5 -108t144.5 -39q43 0 81 9.5t79 29.5l-34 -44v201
q0 37 -8 56t-26 26.5t-52 10.5v25h237v-25q-24 -3 -36.5 -10.5t-17.5 -26.5t-5 -55v-179q-54 -34 -110.5 -52t-120.5 -18zM410 756q-53 0 -86 37.5t-35 100.5h39q3 -34 25 -54.5t57 -20.5q36 0 57.5 20.5t24.5 54.5h39q-1 -63 -34.5 -100.5t-86.5 -37.5z" />
    <glyph glyph-name="gbreve" unicode="&#x11f;" horiz-adv-x="526" 
d="M234 -214q-98 0 -154.5 34t-56.5 87q0 30 18.5 55.5t57.5 47.5v24l72 -28q-33 -13 -51 -34.5t-18 -48.5q0 -41 35 -66t101 -25q46 0 86 13.5t64 37t24 53.5q0 34 -25 50.5t-78 16.5h-152q-51 0 -80.5 26t-29.5 65q0 29 19.5 56.5t59.5 48.5v19l60 -32q-30 -11 -48 -27.5
t-18 -37.5q0 -18 15 -29.5t45 -11.5h149q79 0 124 -30t45 -88q0 -49 -33.5 -89.5t-94 -63.5t-136.5 -23zM249 168q-55 0 -97.5 20t-66 56t-23.5 82t24 82.5t66.5 56.5t96.5 20q33 0 68.5 -11.5t65.5 -35.5v-18q22 -13 36.5 -38t14.5 -57q0 -45 -23.5 -80.5t-65.5 -56
t-96 -20.5zM248 211q29 0 50.5 14t34 40t12.5 61q0 54 -27 85t-70 31q-28 0 -50 -14t-34 -40t-12 -62q0 -53 26.5 -84t69.5 -31zM333 426l-31 47l195 37h5v-84h-169zM254 553q-53 0 -86 37.5t-35 100.5h39q3 -34 25 -54.5t57 -20.5q36 0 57.5 20.5t24.5 54.5h39
q-1 -63 -34.5 -100.5t-86.5 -37.5z" />
    <glyph glyph-name="Gdotaccent" unicode="&#x120;" horiz-adv-x="739" 
d="M410 -12q-105 0 -188 45.5t-129 126.5t-46 183q0 103 50.5 186t140 130.5t201.5 47.5q66 0 124 -12.5t108 -37.5v-144h-28q-23 70 -75 105.5t-127 35.5q-88 0 -153 -40.5t-99.5 -110.5t-34.5 -158q0 -89 32 -158t92.5 -108t144.5 -39q43 0 81 9.5t79 29.5l-34 -44v201
q0 37 -8 56t-26 26.5t-52 10.5v25h237v-25q-24 -3 -36.5 -10.5t-17.5 -26.5t-5 -55v-179q-54 -34 -110.5 -52t-120.5 -18zM411 765q-26 0 -44 18t-18 45q0 26 18 44t44 18q25 0 43 -18.5t18 -43.5q0 -27 -17.5 -45t-43.5 -18z" />
    <glyph glyph-name="gdotaccent" unicode="&#x121;" horiz-adv-x="526" 
d="M234 -214q-98 0 -154.5 34t-56.5 87q0 30 18.5 55.5t57.5 47.5v24l72 -28q-33 -13 -51 -34.5t-18 -48.5q0 -41 35 -66t101 -25q46 0 86 13.5t64 37t24 53.5q0 34 -25 50.5t-78 16.5h-152q-51 0 -80.5 26t-29.5 65q0 29 19.5 56.5t59.5 48.5v19l60 -32q-30 -11 -48 -27.5
t-18 -37.5q0 -18 15 -29.5t45 -11.5h149q79 0 124 -30t45 -88q0 -49 -33.5 -89.5t-94 -63.5t-136.5 -23zM249 168q-55 0 -97.5 20t-66 56t-23.5 82t24 82.5t66.5 56.5t96.5 20q33 0 68.5 -11.5t65.5 -35.5v-18q22 -13 36.5 -38t14.5 -57q0 -45 -23.5 -80.5t-65.5 -56
t-96 -20.5zM248 211q29 0 50.5 14t34 40t12.5 61q0 54 -27 85t-70 31q-28 0 -50 -14t-34 -40t-12 -62q0 -53 26.5 -84t69.5 -31zM333 426l-31 47l195 37h5v-84h-169zM254 562q-26 0 -44 18t-18 45q0 26 18 44t44 18q25 0 43 -18.5t18 -43.5q0 -27 -17.5 -45t-43.5 -18z" />
    <glyph glyph-name="uni0122" unicode="&#x122;" horiz-adv-x="739" 
d="M410 -12q-105 0 -188 45.5t-129 126.5t-46 183q0 103 50.5 186t140 130.5t201.5 47.5q66 0 124 -12.5t108 -37.5v-144h-28q-23 70 -75 105.5t-127 35.5q-88 0 -153 -40.5t-99.5 -110.5t-34.5 -158q0 -89 32 -158t92.5 -108t144.5 -39q43 0 81 9.5t79 29.5l-34 -44v201
q0 37 -8 56t-26 26.5t-52 10.5v25h237v-25q-24 -3 -36.5 -10.5t-17.5 -26.5t-5 -55v-179q-54 -34 -110.5 -52t-120.5 -18zM361 -255l75 126l17 -10q-16 -11 -35 -11q-23 0 -39 14.5t-16 37.5t15 38t37 15q25 0 41 -17t16 -43q0 -14 -5 -27.5t-14 -29.5l-52 -93h-40z" />
    <glyph glyph-name="uni0123" unicode="&#x123;" horiz-adv-x="526" 
d="M234 -214q-98 0 -154.5 34t-56.5 87q0 30 18.5 55.5t57.5 47.5v24l72 -28q-33 -13 -51 -34.5t-18 -48.5q0 -41 35 -66t101 -25q46 0 86 13.5t64 37t24 53.5q0 34 -25 50.5t-78 16.5h-152q-51 0 -80.5 26t-29.5 65q0 29 19.5 56.5t59.5 48.5v19l60 -32q-30 -11 -48 -27.5
t-18 -37.5q0 -18 15 -29.5t45 -11.5h149q79 0 124 -30t45 -88q0 -49 -33.5 -89.5t-94 -63.5t-136.5 -23zM249 168q-55 0 -97.5 20t-66 56t-23.5 82t24 82.5t66.5 56.5t96.5 20q33 0 68.5 -11.5t65.5 -35.5v-18q22 -13 36.5 -38t14.5 -57q0 -45 -23.5 -80.5t-65.5 -56
t-96 -20.5zM248 211q29 0 50.5 14t34 40t12.5 61q0 54 -27 85t-70 31q-28 0 -50 -14t-34 -40t-12 -62q0 -53 26.5 -84t69.5 -31zM333 426l-31 47l195 37h5v-84h-169zM310 738l-75 -126l-17 10q16 11 35 11q23 0 39 -14.5t16 -37.5t-15 -38t-37 -15q-25 0 -41 17t-16 43
q0 14 5 27.5t14 29.5l52 93h40z" />
    <glyph glyph-name="Hcircumflex" unicode="&#x124;" horiz-adv-x="807" 
d="M596 574q0 39 -5.5 58t-18.5 27t-40 11v25h220v-25q-27 -3 -40 -11t-18.5 -27t-5.5 -58v-452q0 -38 5.5 -57t18.5 -27t40 -13v-25h-220v25q27 5 40 13t18.5 27t5.5 57v452zM119 574q0 39 -5.5 58t-18.5 27t-40 11v25h220v-25q-27 -3 -40 -11t-18.5 -27.5t-5.5 -57.5v-452
q0 -38 5.5 -57t18.5 -27t40 -13v-25h-220v25q27 5 40 13t18.5 27t5.5 57v452zM174 328v53h435v-53h-435zM264 754l115 140h54l114 -140h-49l-92 69l-95 -69h-47z" />
    <glyph glyph-name="hcircumflex" unicode="&#x125;" horiz-adv-x="557" 
d="M90 609q0 24 -4.5 35.5t-14.5 16t-31 6.5v25l130 23h6v-316h6q31 42 65 64t79 22q43 0 77 -19.5t53.5 -59t19.5 -96.5v-207q0 -32 3 -46.5t11.5 -21t28.5 -10.5v-25h-172v25q19 4 28 10.5t12 21.5t3 46v206q0 36 -12 60.5t-32.5 37t-46.5 12.5q-41 0 -71 -25.5t-52 -63.5
v-227q0 -31 3.5 -46t12.5 -21.5t27 -10.5v-25h-172v25q20 4 28.5 10.5t11.5 21t3 46.5v506zM155 754l115 140h54l114 -140h-49l-92 69l-95 -69h-47z" />
    <glyph glyph-name="Hbar" unicode="&#x126;" horiz-adv-x="822" 
d="M604 574q0 39 -5.5 58t-18.5 27t-40 11v25h220v-25q-27 -3 -40 -11t-18.5 -27t-5.5 -58v-452q0 -38 5.5 -57t18.5 -27t40 -13v-25h-220v25q27 5 40 13t18.5 27t5.5 57v452zM127 574q0 39 -5.5 58t-18.5 27t-40 11v25h220v-25q-27 -3 -40 -11t-18.5 -27.5t-5.5 -57.5v-452
q0 -38 5.5 -57t18.5 -27t40 -13v-25h-220v25q27 5 40 13t18.5 27t5.5 57v452zM182 328v53h435v-53h-435zM37 508v47h748v-47h-748z" />
    <glyph glyph-name="hbar" unicode="&#x127;" horiz-adv-x="557" 
d="M90 609q0 24 -4.5 35.5t-14.5 16t-31 6.5v25l130 23h6v-316h6q31 42 65 64t79 22q43 0 77 -19.5t53.5 -59t19.5 -96.5v-207q0 -32 3 -46.5t11.5 -21t28.5 -10.5v-25h-172v25q19 4 28 10.5t12 21.5t3 46v206q0 36 -12 60.5t-32.5 37t-46.5 12.5q-41 0 -71 -25.5t-52 -63.5
v-227q0 -31 3.5 -46t12.5 -21.5t27 -10.5v-25h-172v25q20 4 28.5 10.5t11.5 21t3 46.5v506zM16 583h295v-45h-295v45z" />
    <glyph glyph-name="Itilde" unicode="&#x128;" horiz-adv-x="330" 
d="M56 25q27 4 40 12.5t18.5 27.5t5.5 57v452q0 38 -5.5 57t-19 27.5t-39.5 11.5v25h220v-25q-26 -3 -39.5 -11.5t-19 -27.5t-5.5 -57v-452q0 -38 5.5 -57t18.5 -27.5t40 -12.5v-25h-220v25zM231 758q-20 0 -36.5 7.5t-36.5 21.5l-17 13q-15 11 -25.5 15t-22.5 4
q-20 0 -31 -13.5t-17 -43.5h-37q4 59 30 88t63 29q21 0 37 -7t36 -22l17 -12q16 -11 25.5 -15t22.5 -4q19 0 30 13.5t18 43.5h37q-4 -59 -30.5 -88.5t-62.5 -29.5z" />
    <glyph glyph-name="itilde" unicode="&#x129;" horiz-adv-x="270" 
d="M181 102q0 -31 3 -45.5t12 -21t28 -10.5v-25h-172v25q20 4 28.5 10.5t11.5 21t3 45.5v270q0 24 -4.5 35.5t-14.5 16t-31 6.5v25l130 23h6v-376zM201 555q-20 0 -36.5 7.5t-36.5 21.5l-17 13q-15 11 -25.5 15t-22.5 4q-20 0 -31 -13.5t-17 -43.5h-37q4 59 30 88t63 29
q21 0 37 -7t36 -22l17 -12q16 -11 25.5 -15t22.5 -4q19 0 30 13.5t18 43.5h37q-4 -59 -30.5 -88.5t-62.5 -29.5z" />
    <glyph glyph-name="Imacron" unicode="&#x12a;" horiz-adv-x="330" 
d="M56 25q27 4 40 12.5t18.5 27.5t5.5 57v452q0 38 -5.5 57t-19 27.5t-39.5 11.5v25h220v-25q-26 -3 -39.5 -11.5t-19 -27.5t-5.5 -57v-452q0 -38 5.5 -57t18.5 -27.5t40 -12.5v-25h-220v25zM314 786v48h-296v-48h296z" />
    <glyph glyph-name="imacron" unicode="&#x12b;" horiz-adv-x="270" 
d="M181 102q0 -31 3 -45.5t12 -21t28 -10.5v-25h-172v25q20 4 28.5 10.5t11.5 21t3 45.5v270q0 24 -4.5 35.5t-14.5 16t-31 6.5v25l130 23h6v-376zM285 583v48h-296v-48h296z" />
    <glyph glyph-name="Ibreve" unicode="&#x12c;" horiz-adv-x="330" 
d="M56 25q27 4 40 12.5t18.5 27.5t5.5 57v452q0 38 -5.5 57t-19 27.5t-39.5 11.5v25h220v-25q-26 -3 -39.5 -11.5t-19 -27.5t-5.5 -57v-452q0 -38 5.5 -57t18.5 -27.5t40 -12.5v-25h-220v25zM167 756q-53 0 -86 37.5t-35 100.5h39q3 -34 25 -54.5t57 -20.5q36 0 57.5 20.5
t24.5 54.5h39q-1 -63 -34.5 -100.5t-86.5 -37.5z" />
    <glyph glyph-name="ibreve" unicode="&#x12d;" horiz-adv-x="270" 
d="M181 102q0 -31 3 -45.5t12 -21t28 -10.5v-25h-172v25q20 4 28.5 10.5t11.5 21t3 45.5v270q0 24 -4.5 35.5t-14.5 16t-31 6.5v25l130 23h6v-376zM136 553q-53 0 -86 37.5t-35 100.5h39q3 -34 25 -54.5t57 -20.5q36 0 57.5 20.5t24.5 54.5h39q-1 -63 -34.5 -100.5
t-86.5 -37.5z" />
    <glyph glyph-name="Iogonek" unicode="&#x12e;" horiz-adv-x="330" 
d="M56 25q27 4 40 12.5t18.5 27.5t5.5 57v452q0 38 -5.5 57t-19 27.5t-39.5 11.5v25h220v-25q-26 -3 -39.5 -11.5t-19 -27.5t-5.5 -57v-452q0 -38 5.5 -57t18.5 -27.5t40 -12.5v-25h-220v25zM157 -202q-40 0 -67 23.5t-27 62.5q0 44 38.5 78t93.5 51l25 -13
q-51 -24 -75 -49.5t-24 -54.5q0 -24 14 -39.5t39 -15.5q28 0 50 18l17 -19q-17 -21 -37.5 -31.5t-46.5 -10.5z" />
    <glyph glyph-name="iogonek" unicode="&#x12f;" horiz-adv-x="270" 
d="M181 102q0 -31 3 -45.5t12 -21t28 -10.5v-25h-172v25q20 4 28.5 10.5t11.5 21t3 45.5v270q0 24 -4.5 35.5t-14.5 16t-31 6.5v25l130 23h6v-376zM136 562q-26 0 -44 18t-18 45q0 26 18 44t44 18q25 0 43 -18.5t18 -43.5q0 -27 -17.5 -45t-43.5 -18zM127 -202
q-40 0 -67 23.5t-27 62.5q0 44 38.5 78t93.5 51l25 -13q-51 -24 -75 -49.5t-24 -54.5q0 -24 14 -39.5t39 -15.5q28 0 50 18l17 -19q-17 -21 -37.5 -31.5t-46.5 -10.5z" />
    <glyph glyph-name="Idotaccent" unicode="&#x130;" horiz-adv-x="330" 
d="M56 25q27 4 40 12.5t18.5 27.5t5.5 57v452q0 38 -5.5 57t-19 27.5t-39.5 11.5v25h220v-25q-26 -3 -39.5 -11.5t-19 -27.5t-5.5 -57v-452q0 -38 5.5 -57t18.5 -27.5t40 -12.5v-25h-220v25zM168 765q-26 0 -44 18t-18 45q0 26 18 44t44 18q25 0 43 -18.5t18 -43.5
q0 -27 -17.5 -45t-43.5 -18z" />
    <glyph glyph-name="dotlessi" unicode="&#x131;" horiz-adv-x="270" 
d="M181 102q0 -31 3 -45.5t12 -21t28 -10.5v-25h-172v25q20 4 28.5 10.5t11.5 21t3 45.5v270q0 24 -4.5 35.5t-14.5 16t-31 6.5v25l130 23h6v-376z" />
    <glyph glyph-name="IJ" unicode="&#x132;" horiz-adv-x="793" 
d="M56 25q27 4 40 12.5t18.5 27.5t5.5 57v452q0 38 -5.5 57t-19 27.5t-39.5 11.5v25h220v-25q-26 -3 -39.5 -11.5t-19 -27.5t-5.5 -57v-452q0 -38 5.5 -57t18.5 -27.5t40 -12.5v-25h-220v25zM486 -12q-42 0 -82.5 14t-67.5 35l19 34q26 -14 51.5 -20.5t51.5 -6.5
q60 0 97.5 34.5t37.5 112.5v385q0 38 -5.5 56.5t-19 26.5t-39.5 11v25h220v-25q-26 -3 -39.5 -11t-19 -26.5t-5.5 -56.5v-365q0 -74 -26.5 -124t-71.5 -74.5t-101 -24.5z" />
    <glyph glyph-name="ij" unicode="&#x133;" horiz-adv-x="525" 
d="M181 102q0 -31 3 -45.5t12 -21t28 -10.5v-25h-172v25q20 4 28.5 10.5t11.5 21t3 45.5v270q0 24 -4.5 35.5t-14.5 16t-31 6.5v25l130 23h6v-376zM136 562q-26 0 -44 18t-18 45q0 26 18 44t44 18q25 0 43 -18.5t18 -43.5q0 -27 -17.5 -45t-43.5 -18zM301 -214
q-24 0 -47.5 6.5t-39.5 17.5l10 31q25 -9 51 -9q43 0 64 25.5t21 78.5v436q0 24 -4.5 35.5t-14.5 16t-31 6.5v25l130 23h6v-529q0 -81 -42 -122t-103 -41zM401 562q-26 0 -44 18t-18 45q0 26 18 44t44 18q25 0 43 -18.5t18 -43.5q0 -27 -17.5 -45t-43.5 -18z" />
    <glyph glyph-name="Jcircumflex" unicode="&#x134;" horiz-adv-x="463" 
d="M156 -12q-42 0 -82.5 14t-67.5 35l19 34q26 -14 51.5 -20.5t51.5 -6.5q60 0 97.5 34.5t37.5 112.5v385q0 38 -5.5 56.5t-19 26.5t-39.5 11v25h220v-25q-26 -3 -39.5 -11t-19 -26.5t-5.5 -56.5v-365q0 -74 -26.5 -124t-71.5 -74.5t-101 -24.5zM169 754l115 140h54
l114 -140h-49l-92 69l-95 -69h-47z" />
    <glyph glyph-name="jcircumflex" unicode="&#x135;" horiz-adv-x="255" 
d="M31 -214q-24 0 -47.5 6.5t-39.5 17.5l10 31q25 -9 51 -9q43 0 64 25.5t21 78.5v436q0 24 -4.5 35.5t-14.5 16t-31 6.5v25l130 23h6v-529q0 -81 -42 -122t-103 -41zM-11 551l115 140h54l114 -140h-49l-92 69l-95 -69h-47z" />
    <glyph glyph-name="uni0136" unicode="&#x136;" horiz-adv-x="692" 
d="M211 121q0 -38 5.5 -56.5t19 -26.5t41.5 -13v-25h-222v25q27 5 40 13t18.5 26.5t5.5 56.5v453q0 38 -5.5 57t-18.5 27.5t-40 11.5v25h220v-25q-27 -3 -40 -11.5t-18.5 -27.5t-5.5 -57v-453zM447 581q37 38 41 60t-25 29v25h207v-25q-48 -6 -81 -28t-85 -75l-304 -310
l6 85h9zM332 409l365 -404v-5h-129l-304 347zM331 -255l75 126l17 -10q-16 -11 -35 -11q-23 0 -39 14.5t-16 37.5t15 38t37 15q25 0 41 -17t16 -43q0 -14 -5 -27.5t-14 -29.5l-52 -93h-40z" />
    <glyph glyph-name="uni0137" unicode="&#x137;" horiz-adv-x="531" 
d="M46 25q20 4 28.5 10.5t11.5 21t3 45.5v507q0 24 -4.5 35.5t-14.5 16t-31 6.5v25l130 23h6v-613q0 -31 3 -45.5t12 -21t28 -10.5v-25h-172v25zM409 0l-208 242l64 53l263 -293v-2h-119zM161 178l6 74h14l145 137q28 27 32 40.5t-16 18.5v25h173v-25q-42 -7 -70 -22.5
t-66 -49.5zM227 -255l75 126l17 -10q-16 -11 -35 -11q-23 0 -39 14.5t-16 37.5t15 38t37 15q25 0 41 -17t16 -43q0 -14 -5 -27.5t-14 -29.5l-52 -93h-40z" />
    <glyph glyph-name="Lacute" unicode="&#x139;" horiz-adv-x="578" 
d="M55 25q27 4 40.5 13t18.5 28t5 55v455q0 38 -5.5 56.5t-18.5 26.5t-40 11v25h220v-25q-28 -3 -41 -11t-18 -26t-5 -57v-526h166q46 0 76 11t48 42t23 90h27v-193h-496v25zM121 754l51 140h115v-3l-127 -137h-39z" />
    <glyph glyph-name="lacute" unicode="&#x13a;" horiz-adv-x="263" 
d="M46 25q20 4 28.5 10.5t11.5 21t3 45.5v507q0 24 -4.5 35.5t-14.5 16t-31 6.5v25l130 23h6v-613q0 -31 3 -45.5t12 -21t28 -10.5v-25h-172v25zM85 754l51 140h115v-3l-127 -137h-39z" />
    <glyph glyph-name="uni013B" unicode="&#x13b;" horiz-adv-x="578" 
d="M55 25q27 4 40.5 13t18.5 28t5 55v455q0 38 -5.5 56.5t-18.5 26.5t-40 11v25h220v-25q-28 -3 -41 -11t-18 -26t-5 -57v-526h166q46 0 76 11t48 42t23 90h27v-193h-496v25zM269 -255l75 126l17 -10q-16 -11 -35 -11q-23 0 -39 14.5t-16 37.5t15 38t37 15q25 0 41 -17
t16 -43q0 -14 -5 -27.5t-14 -29.5l-52 -93h-40z" />
    <glyph glyph-name="uni013C" unicode="&#x13c;" horiz-adv-x="263" 
d="M46 25q20 4 28.5 10.5t11.5 21t3 45.5v507q0 24 -4.5 35.5t-14.5 16t-31 6.5v25l130 23h6v-613q0 -31 3 -45.5t12 -21t28 -10.5v-25h-172v25zM76 -255l75 126l17 -10q-16 -11 -35 -11q-23 0 -39 14.5t-16 37.5t15 38t37 15q25 0 41 -17t16 -43q0 -14 -5 -27.5t-14 -29.5
l-52 -93h-40z" />
    <glyph glyph-name="Lcaron" unicode="&#x13d;" horiz-adv-x="578" 
d="M55 25q27 4 40.5 13t18.5 28t5 55v455q0 38 -5.5 56.5t-18.5 26.5t-40 11v25h220v-25q-28 -3 -41 -11t-18 -26t-5 -57v-526h166q46 0 76 11t48 42t23 90h27v-193h-496v25zM349 505l71 119l16 -9q-13 -10 -33 -10q-21 0 -36.5 13.5t-15.5 35.5q0 21 14 35.5t35 14.5
q25 0 40 -16t15 -41q0 -13 -4.5 -25t-13.5 -28l-0.5 -0.5l-0.5 -0.5l-49 -88h-38z" />
    <glyph glyph-name="lcaron" unicode="&#x13e;" horiz-adv-x="263" 
d="M46 25q20 4 28.5 10.5t11.5 21t3 45.5v507q0 24 -4.5 35.5t-14.5 16t-31 6.5v25l130 23h6v-613q0 -31 3 -45.5t12 -21t28 -10.5v-25h-172v25zM223 520l71 119l16 -9q-13 -10 -33 -10q-21 0 -36.5 13.5t-15.5 35.5q0 21 14 35.5t35 14.5q25 0 40 -16t15 -41
q0 -13 -4.5 -25t-13.5 -28l-0.5 -0.5l-0.5 -0.5l-49 -88h-38z" />
    <glyph glyph-name="Ldot" unicode="&#x13f;" horiz-adv-x="578" 
d="M55 25q27 4 40.5 13t18.5 28t5 55v455q0 38 -5.5 56.5t-18.5 26.5t-40 11v25h220v-25q-28 -3 -41 -11t-18 -26t-5 -57v-526h166q46 0 76 11t48 42t23 90h27v-193h-496v25zM370 229q-27 0 -46.5 19.5t-19.5 46.5t19.5 46.5t46.5 19.5t46.5 -19.5t19.5 -46.5t-19.5 -46.5
t-46.5 -19.5z" />
    <glyph glyph-name="ldot" unicode="&#x140;" horiz-adv-x="319" 
d="M46 25q20 4 28.5 10.5t11.5 21t3 45.5v507q0 24 -4.5 35.5t-14.5 16t-31 6.5v25l130 23h6v-613q0 -31 3 -45.5t12 -21t28 -10.5v-25h-172v25zM291 296q-27 0 -46.5 19.5t-19.5 46.5t19.5 46.5t46.5 19.5t46.5 -19.5t19.5 -46.5t-19.5 -46.5t-46.5 -19.5z" />
    <glyph glyph-name="Lslash" unicode="&#x141;" horiz-adv-x="601" 
d="M78 25q27 4 40.5 13t18.5 28t5 55v455q0 38 -5.5 56.5t-18.5 26.5t-40 11v25h220v-25q-28 -3 -41 -11t-18 -26t-5 -57v-526h166q46 0 76 11t48 42t23 90h27v-193h-496v25zM46 185v56l376 213v-56z" />
    <glyph glyph-name="lslash" unicode="&#x142;" horiz-adv-x="319" 
d="M77 25q20 4 28.5 10.5t11.5 21t3 45.5v507q0 24 -4.5 35.5t-14.5 16t-31 6.5v25l130 23h6v-613q0 -31 3 -45.5t12 -21t28 -10.5v-25h-172v25zM33 261v52l257 145v-52z" />
    <glyph glyph-name="Nacute" unicode="&#x143;" horiz-adv-x="763" 
d="M53 25q27 5 40 13t18.5 27t5.5 57v510l-46 58v5h136l383 -540h6v420q0 39 -5 57.5t-18 26.5t-40 11v25h181v-25q-27 -3 -40 -11t-18.5 -27t-5.5 -57v-575h-64l-409 576h-6v-454q0 -38 5.5 -57t18.5 -27t40 -13v-25h-182v25zM343 754l51 140h115v-3l-127 -137h-39z" />
    <glyph glyph-name="nacute" unicode="&#x144;" horiz-adv-x="563" 
d="M95 372q0 24 -4.5 35.5t-14.5 16t-31 6.5v25l130 23h6v-79h6q31 43 65 64.5t79 21.5q43 0 77 -19.5t53.5 -59t19.5 -96.5v-207q0 -32 3 -46.5t11.5 -21t28.5 -10.5v-25h-172v25q19 4 28 10.5t12 21.5t3 46v206q0 36 -12 60.5t-32 37t-46 12.5q-41 0 -71.5 -25.5
t-52.5 -63.5v-227q0 -31 3.5 -46t12.5 -21.5t27 -10.5v-25h-172v25q20 4 28.5 10.5t11.5 21t3 46.5v269zM245 551l51 140h115v-3l-127 -137h-39z" />
    <glyph glyph-name="uni0145" unicode="&#x145;" horiz-adv-x="763" 
d="M53 25q27 5 40 13t18.5 27t5.5 57v510l-46 58v5h136l383 -540h6v420q0 39 -5 57.5t-18 26.5t-40 11v25h181v-25q-27 -3 -40 -11t-18.5 -27t-5.5 -57v-575h-64l-409 576h-6v-454q0 -38 5.5 -57t18.5 -27t40 -13v-25h-182v25zM344 -255l75 126l17 -10q-16 -11 -35 -11
q-23 0 -39 14.5t-16 37.5t15 38t37 15q25 0 41 -17t16 -43q0 -14 -5 -27.5t-14 -29.5l-52 -93h-40z" />
    <glyph glyph-name="uni0146" unicode="&#x146;" horiz-adv-x="563" 
d="M95 372q0 24 -4.5 35.5t-14.5 16t-31 6.5v25l130 23h6v-79h6q31 43 65 64.5t79 21.5q43 0 77 -19.5t53.5 -59t19.5 -96.5v-207q0 -32 3 -46.5t11.5 -21t28.5 -10.5v-25h-172v25q19 4 28 10.5t12 21.5t3 46v206q0 36 -12 60.5t-32 37t-46 12.5q-41 0 -71.5 -25.5
t-52.5 -63.5v-227q0 -31 3.5 -46t12.5 -21.5t27 -10.5v-25h-172v25q20 4 28.5 10.5t11.5 21t3 46.5v269zM235 -255l75 126l17 -10q-16 -11 -35 -11q-23 0 -39 14.5t-16 37.5t15 38t37 15q25 0 41 -17t16 -43q0 -14 -5 -27.5t-14 -29.5l-52 -93h-40z" />
    <glyph glyph-name="Ncaron" unicode="&#x147;" horiz-adv-x="763" 
d="M53 25q27 5 40 13t18.5 27t5.5 57v510l-46 58v5h136l383 -540h6v420q0 39 -5 57.5t-18 26.5t-40 11v25h181v-25q-27 -3 -40 -11t-18.5 -27t-5.5 -57v-575h-64l-409 576h-6v-454q0 -38 5.5 -57t18.5 -27t40 -13v-25h-182v25zM528 894l-115 -140h-54l-114 140h49l92 -69
l95 69h47z" />
    <glyph glyph-name="ncaron" unicode="&#x148;" horiz-adv-x="563" 
d="M95 372q0 24 -4.5 35.5t-14.5 16t-31 6.5v25l130 23h6v-79h6q31 43 65 64.5t79 21.5q43 0 77 -19.5t53.5 -59t19.5 -96.5v-207q0 -32 3 -46.5t11.5 -21t28.5 -10.5v-25h-172v25q19 4 28 10.5t12 21.5t3 46v206q0 36 -12 60.5t-32 37t-46 12.5q-41 0 -71.5 -25.5
t-52.5 -63.5v-227q0 -31 3.5 -46t12.5 -21.5t27 -10.5v-25h-172v25q20 4 28.5 10.5t11.5 21t3 46.5v269zM430 691l-115 -140h-54l-114 140h49l92 -69l95 69h47z" />
    <glyph glyph-name="Eng" unicode="&#x14a;" horiz-adv-x="763" 
d="M497 -214q-49 0 -87 24l10 31q25 -9 51 -9q43 0 65 25t22 76v93l-381 543h-6v-448q0 -37 5.5 -55.5t18.5 -27t40 -13.5v-25h-182v25q27 5 40.5 13.5t18.5 27t5 55.5v508l-46 61v5h136l383 -545h6v426q0 37 -5 56t-18 27t-40 11v25h181v-25q-27 -3 -40.5 -11t-18.5 -27
t-5 -56v-628q0 -56 -22 -92.5t-56.5 -53t-74.5 -16.5z" />
    <glyph glyph-name="eng" unicode="&#x14b;" horiz-adv-x="553" 
d="M336 -214q-24 0 -47.5 6.5t-39.5 17.5l10 31q25 -9 51 -9q43 0 64 25.5t21 78.5v373q0 36 -12 60.5t-32 37t-45 12.5q-42 0 -72.5 -25.5t-52.5 -63.5v-227q0 -31 3.5 -46t12.5 -21.5t27 -10.5v-25h-172v25q20 4 28.5 10.5t11.5 21t3 46.5v269q0 24 -4.5 35.5t-14.5 16
t-31 6.5v25l130 23h6v-79h6q30 42 65 64t80 22q43 0 76.5 -19.5t53 -59t19.5 -96.5v-361q0 -81 -42 -122t-103 -41z" />
    <glyph glyph-name="Omacron" unicode="&#x14c;" horiz-adv-x="785" 
d="M393 -12q-99 0 -178 46.5t-123.5 128.5t-44.5 184t44.5 184t123.5 129t178 47q100 0 178.5 -47t122.5 -129t44 -184t-44 -184t-122.5 -128.5t-178.5 -46.5zM393 41q71 0 125 38.5t83.5 107.5t29.5 160t-29.5 160.5t-83.5 108t-125 38.5t-125 -38.5t-83.5 -108
t-29.5 -160.5t29.5 -160t83.5 -107.5t125 -38.5zM541 786v48h-296v-48h296z" />
    <glyph glyph-name="omacron" unicode="&#x14d;" horiz-adv-x="555" 
d="M278 -12q-68 0 -121.5 32t-84 88.5t-30.5 128.5t30.5 128.5t84 88t121.5 31.5t121.5 -31.5t83.5 -88t30 -128.5t-30 -128.5t-83.5 -88.5t-121.5 -32zM278 40q42 0 73 23.5t48 67.5t17 106q0 61 -17 105t-48 67.5t-73 23.5q-43 0 -74 -24t-48 -68t-17 -104t16.5 -104.5
t48 -68.5t74.5 -24zM427 583v48h-296v-48h296z" />
    <glyph glyph-name="Obreve" unicode="&#x14e;" horiz-adv-x="785" 
d="M393 -12q-99 0 -178 46.5t-123.5 128.5t-44.5 184t44.5 184t123.5 129t178 47q100 0 178.5 -47t122.5 -129t44 -184t-44 -184t-122.5 -128.5t-178.5 -46.5zM393 41q71 0 125 38.5t83.5 107.5t29.5 160t-29.5 160.5t-83.5 108t-125 38.5t-125 -38.5t-83.5 -108
t-29.5 -160.5t29.5 -160t83.5 -107.5t125 -38.5zM394 756q-53 0 -86 37.5t-35 100.5h39q3 -34 25 -54.5t57 -20.5q36 0 57.5 20.5t24.5 54.5h39q-1 -63 -34.5 -100.5t-86.5 -37.5z" />
    <glyph glyph-name="obreve" unicode="&#x14f;" horiz-adv-x="555" 
d="M278 -12q-68 0 -121.5 32t-84 88.5t-30.5 128.5t30.5 128.5t84 88t121.5 31.5t121.5 -31.5t83.5 -88t30 -128.5t-30 -128.5t-83.5 -88.5t-121.5 -32zM278 40q42 0 73 23.5t48 67.5t17 106q0 61 -17 105t-48 67.5t-73 23.5q-43 0 -74 -24t-48 -68t-17 -104t16.5 -104.5
t48 -68.5t74.5 -24zM278 553q-53 0 -86 37.5t-35 100.5h39q3 -34 25 -54.5t57 -20.5q36 0 57.5 20.5t24.5 54.5h39q-1 -63 -34.5 -100.5t-86.5 -37.5z" />
    <glyph glyph-name="Ohungarumlaut" unicode="&#x150;" horiz-adv-x="785" 
d="M393 -12q-99 0 -178 46.5t-123.5 128.5t-44.5 184t44.5 184t123.5 129t178 47q100 0 178.5 -47t122.5 -129t44 -184t-44 -184t-122.5 -128.5t-178.5 -46.5zM393 41q71 0 125 38.5t83.5 107.5t29.5 160t-29.5 160.5t-83.5 108t-125 38.5t-125 -38.5t-83.5 -108
t-29.5 -160.5t29.5 -160t83.5 -107.5t125 -38.5zM282 754l42 140h101v-3l-108 -137h-35zM426 754l43 140h100v-3l-108 -137h-35z" />
    <glyph glyph-name="ohungarumlaut" unicode="&#x151;" horiz-adv-x="555" 
d="M278 -12q-68 0 -121.5 32t-84 88.5t-30.5 128.5t30.5 128.5t84 88t121.5 31.5t121.5 -31.5t83.5 -88t30 -128.5t-30 -128.5t-83.5 -88.5t-121.5 -32zM278 40q42 0 73 23.5t48 67.5t17 106q0 61 -17 105t-48 67.5t-73 23.5q-43 0 -74 -24t-48 -68t-17 -104t16.5 -104.5
t48 -68.5t74.5 -24zM167 551l42 140h101v-3l-108 -137h-35zM311 551l43 140h100v-3l-108 -137h-35z" />
    <glyph glyph-name="OE" unicode="&#x152;" horiz-adv-x="910" 
d="M425 0q-111 0 -196.5 44t-133.5 123t-48 180t48 180.5t133.5 123.5t196.5 44h422v-147h-27q-4 51 -37.5 74t-106.5 23h-147v-268h101q59 0 85.5 17.5t28.5 55.5h27v-196h-27q-1 39 -28 56t-86 17h-101v-277h168q44 0 74 11.5t48 38.5t21 72h27v-172h-442zM415 50h21v595
h-21q-73 0 -132.5 -36t-93.5 -103.5t-34 -158.5q0 -90 34 -157.5t93.5 -103.5t132.5 -36z" />
    <glyph glyph-name="oe" unicode="&#x153;" horiz-adv-x="879" 
d="M278 -12q-68 0 -121.5 32t-84 88.5t-30.5 128.5t30.5 128.5t84 88t121.5 31.5q60 0 108.5 -25t79.5 -69h6q31 44 76 69t99 25q53 0 94.5 -21.5t65 -64t23.5 -102.5v-29h-329l2 46h240q0 55 -28 88.5t-77 33.5q-39 0 -67 -21t-43 -58t-15 -83q0 -69 22 -117t61.5 -72
t93.5 -24q43 0 75.5 12t63.5 36l22 -22q-41 -50 -87 -74.5t-105 -24.5q-56 0 -105.5 25t-81.5 69h-6q-32 -44 -80.5 -69t-107.5 -25zM278 40q42 0 73 23.5t48 67.5t17 106q0 61 -17 105t-48 67.5t-73 23.5q-43 0 -74 -24t-48 -68t-17 -104t16.5 -104.5t48 -68.5t74.5 -24z
" />
    <glyph glyph-name="Racute" unicode="&#x154;" horiz-adv-x="659" 
d="M52 25q27 5 40 13t18.5 27.5t5.5 58.5v452q0 36 -5 55t-18.5 27.5t-40.5 11.5v25h263q75 0 131.5 -21.5t87.5 -60.5t31 -92q0 -52 -31.5 -92.5t-89.5 -63.5t-133 -23h-27l85 12l301 -351v-3h-120l-282 340h-60v-216q0 -39 5.5 -58.5t18.5 -27.5t40 -13v-25h-220v25z
M294 390q81 0 125 34t44 96q0 61 -43.5 93t-123.5 32h-88v-255h86zM274 754l51 140h115v-3l-127 -137h-39z" />
    <glyph glyph-name="racute" unicode="&#x155;" horiz-adv-x="379" 
d="M95 372q0 24 -4.5 35.5t-14.5 16t-31 6.5v25l130 23h6v-136h6q21 75 54 109t82 34q19 0 36 -6v-88q-17 6 -38 6q-49 0 -83.5 -35t-56.5 -100v-165q0 -31 3 -44.5t12.5 -19t32.5 -8.5v-25h-177v25q20 3 28.5 9t11.5 19t3 44v275zM177 551l51 140h115v-3l-127 -137h-39z
" />
    <glyph glyph-name="uni0156" unicode="&#x156;" horiz-adv-x="659" 
d="M52 25q27 5 40 13t18.5 27.5t5.5 58.5v452q0 36 -5 55t-18.5 27.5t-40.5 11.5v25h263q75 0 131.5 -21.5t87.5 -60.5t31 -92q0 -52 -31.5 -92.5t-89.5 -63.5t-133 -23h-27l85 12l301 -351v-3h-120l-282 340h-60v-216q0 -39 5.5 -58.5t18.5 -27.5t40 -13v-25h-220v25z
M294 390q81 0 125 34t44 96q0 61 -43.5 93t-123.5 32h-88v-255h86zM311 -255l75 126l17 -10q-16 -11 -35 -11q-23 0 -39 14.5t-16 37.5t15 38t37 15q25 0 41 -17t16 -43q0 -14 -5 -27.5t-14 -29.5l-52 -93h-40z" />
    <glyph glyph-name="uni0157" unicode="&#x157;" horiz-adv-x="379" 
d="M95 372q0 24 -4.5 35.5t-14.5 16t-31 6.5v25l130 23h6v-136h6q21 75 54 109t82 34q19 0 36 -6v-88q-17 6 -38 6q-49 0 -83.5 -35t-56.5 -100v-165q0 -31 3 -44.5t12.5 -19t32.5 -8.5v-25h-177v25q20 3 28.5 9t11.5 19t3 44v275zM83 -255l75 126l17 -10q-16 -11 -35 -11
q-23 0 -39 14.5t-16 37.5t15 38t37 15q25 0 41 -17t16 -43q0 -14 -5 -27.5t-14 -29.5l-52 -93h-40z" />
    <glyph glyph-name="Rcaron" unicode="&#x158;" horiz-adv-x="659" 
d="M52 25q27 5 40 13t18.5 27.5t5.5 58.5v452q0 36 -5 55t-18.5 27.5t-40.5 11.5v25h263q75 0 131.5 -21.5t87.5 -60.5t31 -92q0 -52 -31.5 -92.5t-89.5 -63.5t-133 -23h-27l85 12l301 -351v-3h-120l-282 340h-60v-216q0 -39 5.5 -58.5t18.5 -27.5t40 -13v-25h-220v25z
M294 390q81 0 125 34t44 96q0 61 -43.5 93t-123.5 32h-88v-255h86zM459 894l-115 -140h-54l-114 140h49l92 -69l95 69h47z" />
    <glyph glyph-name="rcaron" unicode="&#x159;" horiz-adv-x="379" 
d="M95 372q0 24 -4.5 35.5t-14.5 16t-31 6.5v25l130 23h6v-136h6q21 75 54 109t82 34q19 0 36 -6v-88q-17 6 -38 6q-49 0 -83.5 -35t-56.5 -100v-165q0 -31 3 -44.5t12.5 -19t32.5 -8.5v-25h-177v25q20 3 28.5 9t11.5 19t3 44v275zM362 691l-115 -140h-54l-114 140h49
l92 -69l95 69h47z" />
    <glyph glyph-name="Sacute" unicode="&#x15a;" horiz-adv-x="540" 
d="M258 -12q-58 0 -111.5 17t-99.5 49v144h26q26 -78 72.5 -118.5t116.5 -40.5q37 0 69.5 15t52 43t19.5 65q0 38 -23.5 66t-78.5 52l-105 47q-68 30 -100.5 77t-32.5 105q0 55 30 100.5t83 71.5t119 26q52 0 99 -13t81 -34v-139h-26q-19 70 -58.5 102.5t-101.5 32.5
q-59 0 -98.5 -32.5t-39.5 -85.5q0 -37 21 -65.5t71 -51.5l107 -48q72 -33 107.5 -76.5t35.5 -106.5q0 -59 -31 -105t-84.5 -71.5t-119.5 -25.5zM235 754l51 140h115v-3l-127 -137h-39z" />
    <glyph glyph-name="sacute" unicode="&#x15b;" horiz-adv-x="410" 
d="M193 -12q-39 0 -78.5 11.5t-68.5 32.5v104h26q21 -50 52 -74.5t75 -24.5q38 0 65 18.5t27 52.5q0 24 -15.5 39t-55.5 33l-73 33q-46 21 -68.5 53t-22.5 73t21.5 74.5t60 52.5t86.5 19q35 0 69 -8.5t61 -22.5v-101h-26q-14 41 -40.5 61.5t-69.5 20.5q-39 0 -64.5 -18.5
t-25.5 -49.5q0 -24 16 -41t53 -33l75 -32q46 -20 69 -51.5t23 -74.5t-22.5 -76.5t-62 -52t-86.5 -18.5zM163 551l51 140h115v-3l-127 -137h-39z" />
    <glyph glyph-name="Scircumflex" unicode="&#x15c;" horiz-adv-x="540" 
d="M258 -12q-58 0 -111.5 17t-99.5 49v144h26q26 -78 72.5 -118.5t116.5 -40.5q37 0 69.5 15t52 43t19.5 65q0 38 -23.5 66t-78.5 52l-105 47q-68 30 -100.5 77t-32.5 105q0 55 30 100.5t83 71.5t119 26q52 0 99 -13t81 -34v-139h-26q-19 70 -58.5 102.5t-101.5 32.5
q-59 0 -98.5 -32.5t-39.5 -85.5q0 -37 21 -65.5t71 -51.5l107 -48q72 -33 107.5 -76.5t35.5 -106.5q0 -59 -31 -105t-84.5 -71.5t-119.5 -25.5zM140 754l115 140h54l114 -140h-49l-92 69l-95 -69h-47z" />
    <glyph glyph-name="scircumflex" unicode="&#x15d;" horiz-adv-x="410" 
d="M193 -12q-39 0 -78.5 11.5t-68.5 32.5v104h26q21 -50 52 -74.5t75 -24.5q38 0 65 18.5t27 52.5q0 24 -15.5 39t-55.5 33l-73 33q-46 21 -68.5 53t-22.5 73t21.5 74.5t60 52.5t86.5 19q35 0 69 -8.5t61 -22.5v-101h-26q-14 41 -40.5 61.5t-69.5 20.5q-39 0 -64.5 -18.5
t-25.5 -49.5q0 -24 16 -41t53 -33l75 -32q46 -20 69 -51.5t23 -74.5t-22.5 -76.5t-62 -52t-86.5 -18.5zM65 551l115 140h54l114 -140h-49l-92 69l-95 -69h-47z" />
    <glyph glyph-name="Scedilla" unicode="&#x15e;" horiz-adv-x="540" 
d="M258 -12q-58 0 -111.5 17t-99.5 49v144h26q26 -78 72.5 -118.5t116.5 -40.5q37 0 69.5 15t52 43t19.5 65q0 38 -23.5 66t-78.5 52l-105 47q-68 30 -100.5 77t-32.5 105q0 55 30 100.5t83 71.5t119 26q52 0 99 -13t81 -34v-139h-26q-19 70 -58.5 102.5t-101.5 32.5
q-59 0 -98.5 -32.5t-39.5 -85.5q0 -37 21 -65.5t71 -51.5l107 -48q72 -33 107.5 -76.5t35.5 -106.5q0 -59 -31 -105t-84.5 -71.5t-119.5 -25.5zM268 -203q-31 0 -56 12.5t-49 39.5l17 19q33 -30 71 -30q27 0 42.5 12t15.5 32q0 17 -12.5 27t-31.5 10q-21 0 -38 -12l-3 2
l37 99l28 -8l-19 -52l2 -1q11 3 25 3q29 0 50.5 -18t21.5 -50q0 -36 -28.5 -60.5t-72.5 -24.5z" />
    <glyph glyph-name="scedilla" unicode="&#x15f;" horiz-adv-x="410" 
d="M193 -12q-39 0 -78.5 11.5t-68.5 32.5v104h26q21 -50 52 -74.5t75 -24.5q38 0 65 18.5t27 52.5q0 24 -15.5 39t-55.5 33l-73 33q-46 21 -68.5 53t-22.5 73t21.5 74.5t60 52.5t86.5 19q35 0 69 -8.5t61 -22.5v-101h-26q-14 41 -40.5 61.5t-69.5 20.5q-39 0 -64.5 -18.5
t-25.5 -49.5q0 -24 16 -41t53 -33l75 -32q46 -20 69 -51.5t23 -74.5t-22.5 -76.5t-62 -52t-86.5 -18.5zM205 -203q-31 0 -56 12.5t-49 39.5l17 19q33 -30 71 -30q27 0 42.5 12t15.5 32q0 17 -12.5 27t-31.5 10q-21 0 -38 -12l-3 2l37 99l28 -8l-19 -52l2 -1q11 3 25 3
q29 0 50.5 -18t21.5 -50q0 -36 -28.5 -60.5t-72.5 -24.5z" />
    <glyph glyph-name="Scaron" unicode="&#x160;" horiz-adv-x="540" 
d="M258 -12q-58 0 -111.5 17t-99.5 49v144h26q26 -78 72.5 -118.5t116.5 -40.5q37 0 69.5 15t52 43t19.5 65q0 38 -23.5 66t-78.5 52l-105 47q-68 30 -100.5 77t-32.5 105q0 55 30 100.5t83 71.5t119 26q52 0 99 -13t81 -34v-139h-26q-19 70 -58.5 102.5t-101.5 32.5
q-59 0 -98.5 -32.5t-39.5 -85.5q0 -37 21 -65.5t71 -51.5l107 -48q72 -33 107.5 -76.5t35.5 -106.5q0 -59 -31 -105t-84.5 -71.5t-119.5 -25.5zM420 894l-115 -140h-54l-114 140h49l92 -69l95 69h47z" />
    <glyph glyph-name="scaron" unicode="&#x161;" horiz-adv-x="410" 
d="M193 -12q-39 0 -78.5 11.5t-68.5 32.5v104h26q21 -50 52 -74.5t75 -24.5q38 0 65 18.5t27 52.5q0 24 -15.5 39t-55.5 33l-73 33q-46 21 -68.5 53t-22.5 73t21.5 74.5t60 52.5t86.5 19q35 0 69 -8.5t61 -22.5v-101h-26q-14 41 -40.5 61.5t-69.5 20.5q-39 0 -64.5 -18.5
t-25.5 -49.5q0 -24 16 -41t53 -33l75 -32q46 -20 69 -51.5t23 -74.5t-22.5 -76.5t-62 -52t-86.5 -18.5zM348 691l-115 -140h-54l-114 140h49l92 -69l95 69h47z" />
    <glyph glyph-name="uni0162" unicode="&#x162;" horiz-adv-x="621" 
d="M193 25q30 5 45 13t21 27t6 57v525h-61q-75 0 -110 -25.5t-44 -78.5h-26v152h574v-152h-26q-9 53 -43.5 78.5t-109.5 25.5h-62v-525q0 -38 6 -57t21 -27t45 -13v-25h-236v25zM306 -203q-31 0 -56 12.5t-49 39.5l17 19q33 -30 71 -30q27 0 42.5 12t15.5 32q0 17 -12.5 27
t-31.5 10q-21 0 -38 -12l-3 2l37 99l28 -8l-19 -52l2 -1q10 3 25 3q29 0 50.5 -18t21.5 -50q0 -36 -28.5 -60.5t-72.5 -24.5z" />
    <glyph glyph-name="uni0163" unicode="&#x163;" horiz-adv-x="353" 
d="M224 -12q-35 0 -61.5 13.5t-41.5 41.5t-15 71v305h-96v40q51 2 75 12t34 37t13 85h60v-120h138v-54h-138v-303q0 -38 15 -54.5t47 -16.5q38 0 71 20l18 -26q-56 -51 -119 -51zM183 -203q-31 0 -56 12.5t-49 39.5l17 19q33 -30 71 -30q27 0 42.5 12t15.5 32q0 17 -12.5 27
t-31.5 10q-21 0 -38 -12l-3 2l37 99l28 -8l-19 -52l2 -1q10 3 25 3q29 0 50.5 -18t21.5 -50q0 -36 -28.5 -60.5t-72.5 -24.5z" />
    <glyph glyph-name="Tcaron" unicode="&#x164;" horiz-adv-x="621" 
d="M193 25q30 5 45 13t21 27t6 57v525h-61q-75 0 -110 -25.5t-44 -78.5h-26v152h574v-152h-26q-9 53 -43.5 78.5t-109.5 25.5h-62v-525q0 -38 6 -57t21 -27t45 -13v-25h-236v25zM451 894l-115 -140h-54l-114 140h49l92 -69l95 69h47z" />
    <glyph glyph-name="tcaron" unicode="&#x165;" horiz-adv-x="353" 
d="M224 -12q-35 0 -61.5 13.5t-41.5 41.5t-15 71v305h-96v40q51 2 75 12t34 37t13 85h60v-120h138v-54h-138v-303q0 -38 15 -54.5t47 -16.5q38 0 71 20l18 -26q-56 -51 -119 -51zM238 520l71 119l16 -9q-13 -10 -33 -10q-21 0 -36.5 13.5t-15.5 35.5q0 21 14 35.5t35 14.5
q25 0 40 -16t15 -41q0 -13 -4.5 -25t-13.5 -28l-0.5 -0.5l-0.5 -0.5l-49 -88h-38z" />
    <glyph glyph-name="Tbar" unicode="&#x166;" horiz-adv-x="621" 
d="M193 25q30 5 45 13t21 27t6 57v525h-61q-75 0 -110 -25.5t-44 -78.5h-26v152h574v-152h-26q-9 53 -43.5 78.5t-109.5 25.5h-62v-525q0 -38 6 -57t21 -27t45 -13v-25h-236v25zM131 395h359v-43h-359v43z" />
    <glyph glyph-name="tbar" unicode="&#x167;" horiz-adv-x="361" 
d="M228 -12q-35 0 -61.5 13.5t-41.5 41.5t-15 71v305h-96v40q51 2 75 12t34 37t13 85h60v-120h138v-54h-138v-303q0 -38 15 -54.5t47 -16.5q38 0 71 20l18 -26q-56 -51 -119 -51zM29 280h295v-45h-295v45z" />
    <glyph glyph-name="Utilde" unicode="&#x168;" horiz-adv-x="758" 
d="M380 -12q-86 0 -147.5 35.5t-93.5 100.5t-32 154v296q0 39 -5.5 58t-18.5 26.5t-40 11.5v25h221v-25q-27 -4 -40.5 -11.5t-19 -26.5t-5.5 -58v-292q0 -71 23.5 -120.5t68 -75.5t106.5 -26q91 0 145.5 57.5t54.5 161.5v295q0 39 -5 57.5t-18 26.5t-41 12v25h182v-25
q-28 -4 -41 -12t-18 -27.5t-5 -58.5v-292q0 -88 -32 -154t-93.5 -102t-145.5 -36zM459 758q-20 0 -36.5 7.5t-36.5 21.5l-17 13q-15 11 -25.5 15t-22.5 4q-20 0 -31 -13.5t-17 -43.5h-37q4 59 30 88t63 29q21 0 37 -7t36 -22l17 -12q16 -11 25.5 -15t22.5 -4q19 0 30 13.5
t18 43.5h37q-4 -59 -30.5 -88.5t-62.5 -29.5z" />
    <glyph glyph-name="utilde" unicode="&#x169;" horiz-adv-x="548" 
d="M224 -12q-38 0 -69.5 18.5t-50 55t-18.5 89.5v217q0 28 -4 43.5t-14 24t-29 12.5v25h133v0v-318q0 -50 22 -75.5t58 -25.5q39 0 69.5 26.5t49.5 64.5v224q0 41 -10 58t-38 21v25h134v0v-369q0 -26 3 -37t11.5 -15.5t28.5 -6.5v-25l-124 -25h-5v76h-6q-24 -36 -60 -59.5
t-81 -23.5zM336 555q-20 0 -36.5 7.5t-36.5 21.5l-17 13q-15 11 -25.5 15t-22.5 4q-20 0 -31 -13.5t-17 -43.5h-37q4 59 30 88t63 29q21 0 37 -7t36 -22l17 -12q16 -11 25.5 -15t22.5 -4q19 0 30 13.5t18 43.5h37q-4 -59 -30.5 -88.5t-62.5 -29.5z" />
    <glyph glyph-name="Umacron" unicode="&#x16a;" horiz-adv-x="758" 
d="M380 -12q-86 0 -147.5 35.5t-93.5 100.5t-32 154v296q0 39 -5.5 58t-18.5 26.5t-40 11.5v25h221v-25q-27 -4 -40.5 -11.5t-19 -26.5t-5.5 -58v-292q0 -71 23.5 -120.5t68 -75.5t106.5 -26q91 0 145.5 57.5t54.5 161.5v295q0 39 -5 57.5t-18 26.5t-41 12v25h182v-25
q-28 -4 -41 -12t-18 -27.5t-5 -58.5v-292q0 -88 -32 -154t-93.5 -102t-145.5 -36zM542 786v48h-296v-48h296z" />
    <glyph glyph-name="umacron" unicode="&#x16b;" horiz-adv-x="548" 
d="M224 -12q-38 0 -69.5 18.5t-50 55t-18.5 89.5v217q0 28 -4 43.5t-14 24t-29 12.5v25h133v0v-318q0 -50 22 -75.5t58 -25.5q39 0 69.5 26.5t49.5 64.5v224q0 41 -10 58t-38 21v25h134v0v-369q0 -26 3 -37t11.5 -15.5t28.5 -6.5v-25l-124 -25h-5v76h-6q-24 -36 -60 -59.5
t-81 -23.5zM420 583v48h-296v-48h296z" />
    <glyph glyph-name="Ubreve" unicode="&#x16c;" horiz-adv-x="758" 
d="M380 -12q-86 0 -147.5 35.5t-93.5 100.5t-32 154v296q0 39 -5.5 58t-18.5 26.5t-40 11.5v25h221v-25q-27 -4 -40.5 -11.5t-19 -26.5t-5.5 -58v-292q0 -71 23.5 -120.5t68 -75.5t106.5 -26q91 0 145.5 57.5t54.5 161.5v295q0 39 -5 57.5t-18 26.5t-41 12v25h182v-25
q-28 -4 -41 -12t-18 -27.5t-5 -58.5v-292q0 -88 -32 -154t-93.5 -102t-145.5 -36zM395 756q-53 0 -86 37.5t-35 100.5h39q3 -34 25 -54.5t57 -20.5q36 0 57.5 20.5t24.5 54.5h39q-1 -63 -34.5 -100.5t-86.5 -37.5z" />
    <glyph glyph-name="ubreve" unicode="&#x16d;" horiz-adv-x="548" 
d="M224 -12q-38 0 -69.5 18.5t-50 55t-18.5 89.5v217q0 28 -4 43.5t-14 24t-29 12.5v25h133v0v-318q0 -50 22 -75.5t58 -25.5q39 0 69.5 26.5t49.5 64.5v224q0 41 -10 58t-38 21v25h134v0v-369q0 -26 3 -37t11.5 -15.5t28.5 -6.5v-25l-124 -25h-5v76h-6q-24 -36 -60 -59.5
t-81 -23.5zM271 553q-53 0 -86 37.5t-35 100.5h39q3 -34 25 -54.5t57 -20.5q36 0 57.5 20.5t24.5 54.5h39q-1 -63 -34.5 -100.5t-86.5 -37.5z" />
    <glyph glyph-name="Uring" unicode="&#x16e;" horiz-adv-x="758" 
d="M380 -12q-86 0 -147.5 35.5t-93.5 100.5t-32 154v296q0 39 -5.5 58t-18.5 26.5t-40 11.5v25h221v-25q-27 -4 -40.5 -11.5t-19 -26.5t-5.5 -58v-292q0 -71 23.5 -120.5t68 -75.5t106.5 -26q91 0 145.5 57.5t54.5 161.5v295q0 39 -5 57.5t-18 26.5t-41 12v25h182v-25
q-28 -4 -41 -12t-18 -27.5t-5 -58.5v-292q0 -88 -32 -154t-93.5 -102t-145.5 -36zM394 734q-40 0 -68 27.5t-28 66.5t28 66.5t68 27.5q39 0 67 -27.5t28 -66.5t-28 -66.5t-67 -27.5zM394 774q23 0 37.5 15t14.5 39t-14.5 39t-37.5 15t-38 -15t-15 -39t15 -39t38 -15z" />
    <glyph glyph-name="uring" unicode="&#x16f;" horiz-adv-x="548" 
d="M224 -12q-38 0 -69.5 18.5t-50 55t-18.5 89.5v217q0 28 -4 43.5t-14 24t-29 12.5v25h133v0v-318q0 -50 22 -75.5t58 -25.5q39 0 69.5 26.5t49.5 64.5v224q0 41 -10 58t-38 21v25h134v0v-369q0 -26 3 -37t11.5 -15.5t28.5 -6.5v-25l-124 -25h-5v76h-6q-24 -36 -60 -59.5
t-81 -23.5zM271 530q-40 0 -68 27.5t-28 66.5t28 66.5t68 27.5q39 0 67 -27.5t28 -66.5t-28 -66.5t-67 -27.5zM271 570q23 0 37.5 15t14.5 39t-14.5 39t-37.5 15t-38 -15t-15 -39t15 -39t38 -15z" />
    <glyph glyph-name="Uhungarumlaut" unicode="&#x170;" horiz-adv-x="758" 
d="M380 -12q-86 0 -147.5 35.5t-93.5 100.5t-32 154v296q0 39 -5.5 58t-18.5 26.5t-40 11.5v25h221v-25q-27 -4 -40.5 -11.5t-19 -26.5t-5.5 -58v-292q0 -71 23.5 -120.5t68 -75.5t106.5 -26q91 0 145.5 57.5t54.5 161.5v295q0 39 -5 57.5t-18 26.5t-41 12v25h182v-25
q-28 -4 -41 -12t-18 -27.5t-5 -58.5v-292q0 -88 -32 -154t-93.5 -102t-145.5 -36zM283 754l42 140h101v-3l-108 -137h-35zM427 754l43 140h100v-3l-108 -137h-35z" />
    <glyph glyph-name="uhungarumlaut" unicode="&#x171;" horiz-adv-x="548" 
d="M224 -12q-38 0 -69.5 18.5t-50 55t-18.5 89.5v217q0 28 -4 43.5t-14 24t-29 12.5v25h133v0v-318q0 -50 22 -75.5t58 -25.5q39 0 69.5 26.5t49.5 64.5v224q0 41 -10 58t-38 21v25h134v0v-369q0 -26 3 -37t11.5 -15.5t28.5 -6.5v-25l-124 -25h-5v76h-6q-24 -36 -60 -59.5
t-81 -23.5zM160 551l42 140h101v-3l-108 -137h-35zM304 551l43 140h100v-3l-108 -137h-35z" />
    <glyph glyph-name="Uogonek" unicode="&#x172;" horiz-adv-x="758" 
d="M396 -202q-41 0 -68 23.5t-27 62.5q0 31 19.5 57t54.5 47v4q-85 1 -145 36t-91 99t-31 151v296q0 39 -5.5 58t-18.5 26.5t-40 11.5v25h221v-25q-27 -4 -40.5 -11.5t-19 -26.5t-5.5 -58v-292q0 -71 23.5 -120.5t68 -75.5t106.5 -26q91 0 145.5 57.5t54.5 161.5v295
q0 39 -5 57.5t-18 26.5t-41 12v25h182v-25q-28 -4 -41 -12t-18 -27.5t-5 -58.5v-292q0 -110 -48 -182.5t-134 -97.5q-55 -16 -83 -45t-28 -58q0 -25 13.5 -40.5t40.5 -15.5q28 0 49 18l17 -19q-16 -21 -37 -31.5t-46 -10.5z" />
    <glyph glyph-name="uogonek" unicode="&#x173;" horiz-adv-x="542" 
d="M368 -202q-40 0 -67 23.5t-27 63.5q0 48 38 82.5t96 50.5l-41 -23v76h-4q-28 -37 -63.5 -60t-79.5 -23q-38 0 -69.5 18.5t-50 55t-18.5 89.5v216q0 28 -4 44t-14 24.5t-29 12.5v25h133v0v-318q0 -50 22 -75.5t59 -25.5q39 0 69 25.5t49 63.5v224q0 29 -4 45t-14.5 24.5
t-29.5 11.5v25h134v0v-369q0 -26 3 -37t11.5 -15.5t28.5 -6.5v-25l-42 -10q-63 -15 -92.5 -46t-29.5 -67q0 -25 14 -40.5t40 -15.5q28 0 49 18l17 -19q-18 -22 -38.5 -32t-45.5 -10z" />
    <glyph glyph-name="Wcircumflex" unicode="&#x174;" horiz-adv-x="983" 
d="M90 567q-10 34 -20 54t-24 31.5t-37 17.5v25h216v-25q-29 -7 -40.5 -18.5t-10.5 -29.5t11 -52l124 -424h6l160 442l-36 107h103l168 -537h6l121 403q12 40 14 60t-8.5 32t-39.5 17v25h175v-25q-37 -8 -53.5 -31t-32.5 -77l-169 -562h-58l-159 506h-6l-183 -506h-59z
M362 754l115 140h54l114 -140h-49l-92 69l-95 -69h-47z" />
    <glyph glyph-name="wcircumflex" unicode="&#x175;" horiz-adv-x="738" 
d="M247 134l103 262l-27 77h89l117 -340h6l77 227q14 42 10 61t-33 27v25h145v-25q-31 -10 -45 -29t-29 -62l-123 -357h-44l-115 335h-6l-130 -335h-43l-124 362q-8 25 -16.5 41.5t-21 27.5t-30.5 17v25h187v-25q-24 -6 -32.5 -17t-6.5 -26t11 -42l75 -229h6zM233 551
l115 140h54l114 -140h-49l-92 69l-95 -69h-47z" />
    <glyph glyph-name="Ycircumflex" unicode="&#x176;" horiz-adv-x="679" 
d="M295 122v211l23 -85l-202 329q-27 45 -47 65t-55 28v25h222v-25q-25 -7 -31.5 -19.5t0 -31.5t25.5 -51l129 -213h6l134 213q20 32 26.5 51t0 31.5t-30.5 19.5v25h181v-25q-39 -9 -61.5 -31t-52.5 -69l-201 -318l26 87v-217q0 -38 5.5 -57t18.5 -27t40 -13v-25h-220v25
q27 5 40 13t18.5 27t5.5 57zM217 754l115 140h54l114 -140h-49l-92 69l-95 -69h-47z" />
    <glyph glyph-name="ycircumflex" unicode="&#x177;" horiz-adv-x="506" 
d="M89 -214q-38 0 -65 15v80q32 -13 68 -13q44 0 77 22t53 75l151 393q11 29 14 44.5t-3.5 27t-28.5 18.5v25h146v-25q-32 -12 -48.5 -33t-32.5 -63l-164 -426q-30 -78 -73 -109t-94 -31zM82 355q-18 43 -33.5 62.5t-44.5 30.5v25h190v-25q-24 -7 -31.5 -17.5t-4.5 -26
t16 -46.5l100 -244h23l-59 -129zM128 551l115 140h54l114 -140h-49l-92 69l-95 -69h-47z" />
    <glyph glyph-name="Ydieresis" unicode="&#x178;" horiz-adv-x="679" 
d="M295 122v211l23 -85l-202 329q-27 45 -47 65t-55 28v25h222v-25q-25 -7 -31.5 -19.5t0 -31.5t25.5 -51l129 -213h6l134 213q20 32 26.5 51t0 31.5t-30.5 19.5v25h181v-25q-39 -9 -61.5 -31t-52.5 -69l-201 -318l26 87v-217q0 -38 5.5 -57t18.5 -27t40 -13v-25h-220v25
q27 5 40 13t18.5 27t5.5 57zM266 767q-26 0 -43 17.5t-17 43.5q0 25 17.5 42.5t42.5 17.5q24 0 42 -17.5t18 -42.5q0 -26 -17.5 -43.5t-42.5 -17.5zM450 767q-26 0 -43 17.5t-17 43.5q0 25 17.5 42.5t42.5 17.5q24 0 42 -17.5t18 -42.5q0 -26 -17.5 -43.5t-42.5 -17.5z" />
    <glyph glyph-name="Zacute" unicode="&#x179;" horiz-adv-x="608" 
d="M36 0v45l410 596v4h-228q-63 0 -95.5 -26.5t-42.5 -87.5h-26v164h509v-45l-410 -596v-4h229q47 0 78 11.5t49.5 39.5t25.5 78h26v-179h-525zM264 754l51 140h115v-3l-127 -137h-39z" />
    <glyph glyph-name="zacute" unicode="&#x17a;" horiz-adv-x="456" 
d="M273 48h-127v6l264 379v40h-360v-119h26q13 41 36.5 56t77.5 15h109v-6l-263 -379v-40h381v135h-26q-17 -51 -43 -69t-75 -18zM183 551l51 140h115v-3l-127 -137h-39z" />
    <glyph glyph-name="Zdotaccent" unicode="&#x17b;" horiz-adv-x="608" 
d="M36 0v45l410 596v4h-228q-63 0 -95.5 -26.5t-42.5 -87.5h-26v164h509v-45l-410 -596v-4h229q47 0 78 11.5t49.5 39.5t25.5 78h26v-179h-525zM311 765q-26 0 -44 18t-18 45q0 26 18 44t44 18q25 0 43 -18.5t18 -43.5q0 -27 -17.5 -45t-43.5 -18z" />
    <glyph glyph-name="zdotaccent" unicode="&#x17c;" horiz-adv-x="456" 
d="M273 48h-127v6l264 379v40h-360v-119h26q13 41 36.5 56t77.5 15h109v-6l-263 -379v-40h381v135h-26q-17 -51 -43 -69t-75 -18zM227 562q-26 0 -44 18t-18 45q0 26 18 44t44 18q25 0 43 -18.5t18 -43.5q0 -27 -17.5 -45t-43.5 -18z" />
    <glyph glyph-name="Zcaron" unicode="&#x17d;" horiz-adv-x="608" 
d="M36 0v45l410 596v4h-228q-63 0 -95.5 -26.5t-42.5 -87.5h-26v164h509v-45l-410 -596v-4h229q47 0 78 11.5t49.5 39.5t25.5 78h26v-179h-525zM449 894l-115 -140h-54l-114 140h49l92 -69l95 69h47z" />
    <glyph glyph-name="zcaron" unicode="&#x17e;" horiz-adv-x="456" 
d="M273 48h-127v6l264 379v40h-360v-119h26q13 41 36.5 56t77.5 15h109v-6l-263 -379v-40h381v135h-26q-17 -51 -43 -69t-75 -18zM368 691l-115 -140h-54l-114 140h49l92 -69l95 69h47z" />
    <glyph glyph-name="uni01E2" unicode="&#x1e2;" horiz-adv-x="900" 
d="M-14 25q34 12 58.5 35.5t47.5 65.5l310 569h435v-147h-27q-4 37 -19.5 58t-46.5 30t-82 9h-143v-268h99q62 0 88 17.5t28 55.5h27v-196h-27q-2 38 -28 55.5t-89 17.5h-98v-277h166q43 0 73.5 10.5t49.5 37.5t22 74h27v-172h-494v25q26 5 38.5 12t19 25t6.5 56v505h-6
l-276 -509q-15 -27 -19.5 -42.5t3.5 -27.5t36 -19v-25h-179v25zM180 222l6 50h262v-50h-268zM763 786v48h-296v-48h296z" />
    <glyph glyph-name="uni01E3" unicode="&#x1e3;" horiz-adv-x="765" 
d="M167 -12q-53 0 -87.5 32.5t-34.5 84.5q0 51 40 82t114 52l124 35l-3 -43l-89 -32q-33 -12 -53 -22t-32 -24.5t-12 -35.5q0 -30 19.5 -47.5t47.5 -17.5q32 0 59.5 20.5t50.5 58.5v180q0 55 -27 82t-77 27q-34 0 -70.5 -13.5t-67.5 -33.5l-19 25q38 39 87 63t99 24
q47 0 81 -18t53 -54h6q29 34 69.5 53t86.5 19q53 0 95 -21.5t65.5 -64t23.5 -102.5v-29h-325l1 46h237q0 56 -28 89t-75 33q-38 0 -66.5 -19.5t-44.5 -57.5t-16 -91q0 -66 22.5 -112.5t62 -70.5t91.5 -24q43 0 75.5 12t64.5 36l22 -22q-41 -51 -87 -75t-105 -24
q-63 0 -115 30t-79 83h-6q-36 -57 -80 -85t-98 -28zM526 583v48h-296v-48h296z" />
    <glyph glyph-name="AEacute" unicode="&#x1fc;" horiz-adv-x="900" 
d="M-14 25q34 12 58.5 35.5t47.5 65.5l310 569h435v-147h-27q-4 37 -19.5 58t-46.5 30t-82 9h-143v-268h99q62 0 88 17.5t28 55.5h27v-196h-27q-2 38 -28 55.5t-89 17.5h-98v-277h166q43 0 73.5 10.5t49.5 37.5t22 74h27v-172h-494v25q26 5 38.5 12t19 25t6.5 56v505h-6
l-276 -509q-15 -27 -19.5 -42.5t3.5 -27.5t36 -19v-25h-179v25zM180 222l6 50h262v-50h-268zM570 754l51 140h115v-3l-127 -137h-39z" />
    <glyph glyph-name="aeacute" unicode="&#x1fd;" horiz-adv-x="765" 
d="M167 -12q-53 0 -87.5 32.5t-34.5 84.5q0 51 40 82t114 52l124 35l-3 -43l-89 -32q-33 -12 -53 -22t-32 -24.5t-12 -35.5q0 -30 19.5 -47.5t47.5 -17.5q32 0 59.5 20.5t50.5 58.5v180q0 55 -27 82t-77 27q-34 0 -70.5 -13.5t-67.5 -33.5l-19 25q38 39 87 63t99 24
q47 0 81 -18t53 -54h6q29 34 69.5 53t86.5 19q53 0 95 -21.5t65.5 -64t23.5 -102.5v-29h-325l1 46h237q0 56 -28 89t-75 33q-38 0 -66.5 -19.5t-44.5 -57.5t-16 -91q0 -66 22.5 -112.5t62 -70.5t91.5 -24q43 0 75.5 12t64.5 36l22 -22q-41 -51 -87 -75t-105 -24
q-63 0 -115 30t-79 83h-6q-36 -57 -80 -85t-98 -28zM333 551l51 140h115v-3l-127 -137h-39z" />
    <glyph glyph-name="Oslashacute" unicode="&#x1fe;" horiz-adv-x="789" 
d="M395 -12q-99 0 -178 46.5t-123.5 128.5t-44.5 184t44.5 184t123.5 129t178 47q100 0 178.5 -47t122.5 -129t44 -184t-44 -184t-122.5 -128.5t-178.5 -46.5zM395 41q71 0 125 38.5t83.5 107.5t29.5 160t-29.5 160.5t-83.5 108t-125 38.5t-125 -38.5t-83.5 -108
t-29.5 -160.5t29.5 -160t83.5 -107.5t125 -38.5zM117 -41l-37 29l593 747l36 -29zM347 754l51 140h115v-3l-127 -137h-39z" />
    <glyph glyph-name="oslashacute" unicode="&#x1ff;" horiz-adv-x="560" 
d="M281 -12q-68 0 -121.5 32t-84 88.5t-30.5 128.5t30.5 128.5t84 88t121.5 31.5t121.5 -31.5t83.5 -88t30 -128.5t-30 -128.5t-83.5 -88.5t-121.5 -32zM281 40q42 0 73 23.5t48 67.5t17 106q0 61 -17 105t-48 67.5t-73 23.5q-43 0 -74 -24t-48 -68t-17 -104t16.5 -104.5
t48 -68.5t74.5 -24zM93 -40l-34 26l409 525l33 -26zM233 551l51 140h115v-3l-127 -137h-39z" />
    <glyph glyph-name="uni0218" unicode="&#x218;" horiz-adv-x="540" 
d="M258 -12q-58 0 -111.5 17t-99.5 49v144h26q26 -78 72.5 -118.5t116.5 -40.5q37 0 69.5 15t52 43t19.5 65q0 38 -23.5 66t-78.5 52l-105 47q-68 30 -100.5 77t-32.5 105q0 55 30 100.5t83 71.5t119 26q52 0 99 -13t81 -34v-139h-26q-19 70 -58.5 102.5t-101.5 32.5
q-59 0 -98.5 -32.5t-39.5 -85.5q0 -37 21 -65.5t71 -51.5l107 -48q72 -33 107.5 -76.5t35.5 -106.5q0 -59 -31 -105t-84.5 -71.5t-119.5 -25.5zM218 -255l75 126l17 -10q-16 -11 -35 -11q-23 0 -39 14.5t-16 37.5t15 38t37 15q25 0 41 -17t16 -43q0 -14 -5 -27.5t-14 -29.5
l-52 -93h-40z" />
    <glyph glyph-name="uni0219" unicode="&#x219;" horiz-adv-x="410" 
d="M193 -12q-39 0 -78.5 11.5t-68.5 32.5v104h26q21 -50 52 -74.5t75 -24.5q38 0 65 18.5t27 52.5q0 24 -15.5 39t-55.5 33l-73 33q-46 21 -68.5 53t-22.5 73t21.5 74.5t60 52.5t86.5 19q35 0 69 -8.5t61 -22.5v-101h-26q-14 41 -40.5 61.5t-69.5 20.5q-39 0 -64.5 -18.5
t-25.5 -49.5q0 -24 16 -41t53 -33l75 -32q46 -20 69 -51.5t23 -74.5t-22.5 -76.5t-62 -52t-86.5 -18.5zM155 -255l75 126l17 -10q-16 -11 -35 -11q-23 0 -39 14.5t-16 37.5t15 38t37 15q25 0 41 -17t16 -43q0 -14 -5 -27.5t-14 -29.5l-52 -93h-40z" />
    <glyph glyph-name="uni021A" unicode="&#x21a;" horiz-adv-x="621" 
d="M193 25q30 5 45 13t21 27t6 57v525h-61q-75 0 -110 -25.5t-44 -78.5h-26v152h574v-152h-26q-9 53 -43.5 78.5t-109.5 25.5h-62v-525q0 -38 6 -57t21 -27t45 -13v-25h-236v25zM256 -255l75 126l17 -10q-16 -11 -35 -11q-23 0 -39 14.5t-16 37.5t15 38t37 15q25 0 41 -17
t16 -43q0 -14 -5 -27.5t-14 -29.5l-52 -93h-40z" />
    <glyph glyph-name="uni021B" unicode="&#x21b;" horiz-adv-x="353" 
d="M224 -12q-35 0 -61.5 13.5t-41.5 41.5t-15 71v305h-96v40q51 2 75 12t34 37t13 85h60v-120h138v-54h-138v-303q0 -38 15 -54.5t47 -16.5q38 0 71 20l18 -26q-56 -51 -119 -51zM133 -255l75 126l17 -10q-16 -11 -35 -11q-23 0 -39 14.5t-16 37.5t15 38t37 15q25 0 41 -17
t16 -43q0 -14 -5 -27.5t-14 -29.5l-52 -93h-40z" />
    <glyph glyph-name="uni0226" unicode="&#x226;" horiz-adv-x="693" 
d="M6 25q33 4 49.5 25.5t36.5 73.5l224 571h55l234 -564q25 -60 40 -80.5t45 -25.5v-25h-219v25q28 2 40 14.5t10.5 33.5t-14.5 52l-180 442h-6l-174 -444q-13 -33 -14.5 -53t11.5 -31t43 -14v-25h-181v25zM164 222v50h319v-50h-319zM346 765q-26 0 -44 18t-18 45
q0 26 18 44t44 18q25 0 43 -18.5t18 -43.5q0 -27 -17.5 -45t-43.5 -18z" />
    <glyph glyph-name="uni0227" unicode="&#x227;" horiz-adv-x="493" 
d="M164 -12q-50 0 -84.5 32.5t-34.5 82.5q0 53 40.5 84.5t120.5 53.5l107 30l2 -42l-81 -29q-53 -19 -76.5 -35.5t-23.5 -47.5q0 -30 19.5 -47.5t48.5 -17.5q33 0 60.5 22.5t48.5 55.5v181q0 55 -27 82t-75 27q-35 0 -70 -12t-70 -35l-19 25q40 40 88.5 63.5t98.5 23.5
q47 0 83 -19.5t56.5 -58.5t20.5 -96v-224q0 -24 9 -35.5t25 -11.5q17 0 33 9l15 -23q-21 -18 -44 -27t-47 -9q-31 0 -53 20t-22 55v4h-6q-29 -41 -64 -61t-79 -20zM232 562q-26 0 -44 18t-18 45q0 26 18 44t44 18q25 0 43 -18.5t18 -43.5q0 -27 -17.5 -45t-43.5 -18z" />
    <glyph glyph-name="uni0232" unicode="&#x232;" horiz-adv-x="679" 
d="M295 122v211l23 -85l-202 329q-27 45 -47 65t-55 28v25h222v-25q-25 -7 -31.5 -19.5t0 -31.5t25.5 -51l129 -213h6l134 213q20 32 26.5 51t0 31.5t-30.5 19.5v25h181v-25q-39 -9 -61.5 -31t-52.5 -69l-201 -318l26 87v-217q0 -38 5.5 -57t18.5 -27t40 -13v-25h-220v25
q27 5 40 13t18.5 27t5.5 57zM505 786v48h-296v-48h296z" />
    <glyph glyph-name="uni0233" unicode="&#x233;" horiz-adv-x="506" 
d="M89 -214q-38 0 -65 15v80q32 -13 68 -13q44 0 77 22t53 75l151 393q11 29 14 44.5t-3.5 27t-28.5 18.5v25h146v-25q-32 -12 -48.5 -33t-32.5 -63l-164 -426q-30 -78 -73 -109t-94 -31zM82 355q-18 43 -33.5 62.5t-44.5 30.5v25h190v-25q-24 -7 -31.5 -17.5t-4.5 -26
t16 -46.5l100 -244h23l-59 -129zM419 583v48h-296v-48h296z" />
    <glyph glyph-name="uni0237" unicode="&#x237;" horiz-adv-x="255" 
d="M31 -214q-24 0 -47.5 6.5t-39.5 17.5l10 31q25 -9 51 -9q43 0 64 25.5t21 78.5v436q0 24 -4.5 35.5t-14.5 16t-31 6.5v25l130 23h6v-529q0 -81 -42 -122t-103 -41z" />
    <glyph glyph-name="circumflex" unicode="&#x2c6;" horiz-adv-x="339" 
d="M29 551l115 140h54l114 -140h-49l-92 69l-95 -69h-47z" />
    <glyph glyph-name="caron" unicode="&#x2c7;" horiz-adv-x="339" 
d="M309 691l-115 -140h-54l-114 140h49l92 -69l95 69h47z" />
    <glyph glyph-name="breve" unicode="&#x2d8;" horiz-adv-x="304" 
d="M153 553q-53 0 -86 37.5t-35 100.5h39q3 -34 25 -54.5t57 -20.5q36 0 57.5 20.5t24.5 54.5h39q-1 -63 -34.5 -100.5t-86.5 -37.5z" />
    <glyph glyph-name="dotaccent" unicode="&#x2d9;" horiz-adv-x="161" 
d="M81 562q-26 0 -44 18t-18 45q0 26 18 44t44 18q25 0 43 -18.5t18 -43.5q0 -27 -17.5 -45t-43.5 -18z" />
    <glyph glyph-name="ring" unicode="&#x2da;" horiz-adv-x="236" 
d="M118 530q-40 0 -68 27.5t-28 66.5t28 66.5t68 27.5q39 0 67 -27.5t28 -66.5t-28 -66.5t-67 -27.5zM118 570q23 0 37.5 15t14.5 39t-14.5 39t-37.5 15t-38 -15t-15 -39t15 -39t38 -15z" />
    <glyph glyph-name="ogonek" unicode="&#x2db;" horiz-adv-x="280" 
d="M130 -202q-40 0 -67 23.5t-27 62.5q0 44 38.5 78t93.5 51l25 -13q-51 -24 -75 -49.5t-24 -54.5q0 -24 14 -39.5t39 -15.5q28 0 50 18l17 -19q-17 -21 -37.5 -31.5t-46.5 -10.5z" />
    <glyph glyph-name="tilde" unicode="&#x2dc;" horiz-adv-x="360" 
d="M247 555q-20 0 -36.5 7.5t-36.5 21.5l-17 13q-15 11 -25.5 15t-22.5 4q-20 0 -31 -13.5t-17 -43.5h-37q4 59 30 88t63 29q21 0 37 -7t36 -22l17 -12q16 -11 25.5 -15t22.5 -4q19 0 30 13.5t18 43.5h37q-4 -59 -30.5 -88.5t-62.5 -29.5z" />
    <glyph glyph-name="hungarumlaut" unicode="&#x2dd;" horiz-adv-x="349" 
d="M33 551l42 140h101v-3l-108 -137h-35zM177 551l43 140h100v-3l-108 -137h-35z" />
    <glyph glyph-name="Wgrave" unicode="&#x1e80;" horiz-adv-x="983" 
d="M90 567q-10 34 -20 54t-24 31.5t-37 17.5v25h216v-25q-29 -7 -40.5 -18.5t-10.5 -29.5t11 -52l124 -424h6l160 442l-36 107h103l168 -537h6l121 403q12 40 14 60t-8.5 32t-39.5 17v25h175v-25q-37 -8 -53.5 -31t-32.5 -77l-169 -562h-58l-159 506h-6l-183 -506h-59z
M548 754h-41l-125 137v3h114z" />
    <glyph glyph-name="wgrave" unicode="&#x1e81;" horiz-adv-x="738" 
d="M247 134l103 262l-27 77h89l117 -340h6l77 227q14 42 10 61t-33 27v25h145v-25q-31 -10 -45 -29t-29 -62l-123 -357h-44l-115 335h-6l-130 -335h-43l-124 362q-8 25 -16.5 41.5t-21 27.5t-30.5 17v25h187v-25q-24 -6 -32.5 -17t-6.5 -26t11 -42l75 -229h6zM419 551h-41
l-125 137v3h114z" />
    <glyph glyph-name="Wacute" unicode="&#x1e82;" horiz-adv-x="983" 
d="M90 567q-10 34 -20 54t-24 31.5t-37 17.5v25h216v-25q-29 -7 -40.5 -18.5t-10.5 -29.5t11 -52l124 -424h6l160 442l-36 107h103l168 -537h6l121 403q12 40 14 60t-8.5 32t-39.5 17v25h175v-25q-37 -8 -53.5 -31t-32.5 -77l-169 -562h-58l-159 506h-6l-183 -506h-59z
M457 754l51 140h115v-3l-127 -137h-39z" />
    <glyph glyph-name="wacute" unicode="&#x1e83;" horiz-adv-x="738" 
d="M247 134l103 262l-27 77h89l117 -340h6l77 227q14 42 10 61t-33 27v25h145v-25q-31 -10 -45 -29t-29 -62l-123 -357h-44l-115 335h-6l-130 -335h-43l-124 362q-8 25 -16.5 41.5t-21 27.5t-30.5 17v25h187v-25q-24 -6 -32.5 -17t-6.5 -26t11 -42l75 -229h6zM331 551
l51 140h115v-3l-127 -137h-39z" />
    <glyph glyph-name="Wdieresis" unicode="&#x1e84;" horiz-adv-x="983" 
d="M90 567q-10 34 -20 54t-24 31.5t-37 17.5v25h216v-25q-29 -7 -40.5 -18.5t-10.5 -29.5t11 -52l124 -424h6l160 442l-36 107h103l168 -537h6l121 403q12 40 14 60t-8.5 32t-39.5 17v25h175v-25q-37 -8 -53.5 -31t-32.5 -77l-169 -562h-58l-159 506h-6l-183 -506h-59z
M411 767q-26 0 -43 17.5t-17 43.5q0 25 17.5 42.5t42.5 17.5q24 0 42 -17.5t18 -42.5q0 -26 -17.5 -43.5t-42.5 -17.5zM595 767q-26 0 -43 17.5t-17 43.5q0 25 17.5 42.5t42.5 17.5q24 0 42 -17.5t18 -42.5q0 -26 -17.5 -43.5t-42.5 -17.5z" />
    <glyph glyph-name="wdieresis" unicode="&#x1e85;" horiz-adv-x="738" 
d="M247 134l103 262l-27 77h89l117 -340h6l77 227q14 42 10 61t-33 27v25h145v-25q-31 -10 -45 -29t-29 -62l-123 -357h-44l-115 335h-6l-130 -335h-43l-124 362q-8 25 -16.5 41.5t-21 27.5t-30.5 17v25h187v-25q-24 -6 -32.5 -17t-6.5 -26t11 -42l75 -229h6zM282 564
q-26 0 -43 17.5t-17 43.5q0 25 17.5 42.5t42.5 17.5q24 0 42 -17.5t18 -42.5q0 -26 -17.5 -43.5t-42.5 -17.5zM466 564q-26 0 -43 17.5t-17 43.5q0 25 17.5 42.5t42.5 17.5q24 0 42 -17.5t18 -42.5q0 -26 -17.5 -43.5t-42.5 -17.5z" />
    <glyph glyph-name="uni1E9E" unicode="&#x1e9e;" horiz-adv-x="704" 
d="M115 124v571h518v-41l-202 -286l-39 14h23q69 0 124 -22t87 -65t32 -104q0 -63 -32 -109t-84 -70t-113 -24q-38 0 -73 10t-68 31l20 36q20 -11 43.5 -17.5t51.5 -6.5q46 0 80.5 20t53 55t18.5 79q0 70 -47 109t-130 39h-37v42l179 254v6h-313v-645h-156v25q28 5 41 14
t18 28t5 57z" />
    <glyph glyph-name="uni1ECA" unicode="&#x1eca;" horiz-adv-x="330" 
d="M56 25q27 4 40 12.5t18.5 27.5t5.5 57v452q0 38 -5.5 57t-19 27.5t-39.5 11.5v25h220v-25q-26 -3 -39.5 -11.5t-19 -27.5t-5.5 -57v-452q0 -38 5.5 -57t18.5 -27.5t40 -12.5v-25h-220v25zM165 -201q-26 0 -44 18t-18 45q0 26 18 44t44 18q25 0 43 -18.5t18 -43.5
q0 -27 -17.5 -45t-43.5 -18z" />
    <glyph glyph-name="uni1ECB" unicode="&#x1ecb;" horiz-adv-x="270" 
d="M181 102q0 -31 3 -45.5t12 -21t28 -10.5v-25h-172v25q20 4 28.5 10.5t11.5 21t3 45.5v270q0 24 -4.5 35.5t-14.5 16t-31 6.5v25l130 23h6v-376zM136 562q-26 0 -44 18t-18 45q0 26 18 44t44 18q25 0 43 -18.5t18 -43.5q0 -27 -17.5 -45t-43.5 -18zM137 -201q-26 0 -44 18
t-18 45q0 26 18 44t44 18q25 0 43 -18.5t18 -43.5q0 -27 -17.5 -45t-43.5 -18z" />
    <glyph glyph-name="uni1ECC" unicode="&#x1ecc;" horiz-adv-x="785" 
d="M393 -12q-99 0 -178 46.5t-123.5 128.5t-44.5 184t44.5 184t123.5 129t178 47q100 0 178.5 -47t122.5 -129t44 -184t-44 -184t-122.5 -128.5t-178.5 -46.5zM393 41q71 0 125 38.5t83.5 107.5t29.5 160t-29.5 160.5t-83.5 108t-125 38.5t-125 -38.5t-83.5 -108
t-29.5 -160.5t29.5 -160t83.5 -107.5t125 -38.5zM392 -201q-26 0 -44 18t-18 45q0 26 18 44t44 18q25 0 43 -18.5t18 -43.5q0 -27 -17.5 -45t-43.5 -18z" />
    <glyph glyph-name="uni1ECD" unicode="&#x1ecd;" horiz-adv-x="555" 
d="M278 -12q-68 0 -121.5 32t-84 88.5t-30.5 128.5t30.5 128.5t84 88t121.5 31.5t121.5 -31.5t83.5 -88t30 -128.5t-30 -128.5t-83.5 -88.5t-121.5 -32zM278 40q42 0 73 23.5t48 67.5t17 106q0 61 -17 105t-48 67.5t-73 23.5q-43 0 -74 -24t-48 -68t-17 -104t16.5 -104.5
t48 -68.5t74.5 -24zM277 -201q-26 0 -44 18t-18 45q0 26 18 44t44 18q25 0 43 -18.5t18 -43.5q0 -27 -17.5 -45t-43.5 -18z" />
    <glyph glyph-name="uni1EE4" unicode="&#x1ee4;" horiz-adv-x="758" 
d="M380 -12q-86 0 -147.5 35.5t-93.5 100.5t-32 154v296q0 39 -5.5 58t-18.5 26.5t-40 11.5v25h221v-25q-27 -4 -40.5 -11.5t-19 -26.5t-5.5 -58v-292q0 -71 23.5 -120.5t68 -75.5t106.5 -26q91 0 145.5 57.5t54.5 161.5v295q0 39 -5 57.5t-18 26.5t-41 12v25h182v-25
q-28 -4 -41 -12t-18 -27.5t-5 -58.5v-292q0 -88 -32 -154t-93.5 -102t-145.5 -36zM383 -201q-26 0 -44 18t-18 45q0 26 18 44t44 18q25 0 43 -18.5t18 -43.5q0 -27 -17.5 -45t-43.5 -18z" />
    <glyph glyph-name="uni1EE5" unicode="&#x1ee5;" horiz-adv-x="548" 
d="M224 -12q-38 0 -69.5 18.5t-50 55t-18.5 89.5v217q0 28 -4 43.5t-14 24t-29 12.5v25h133v0v-318q0 -50 22 -75.5t58 -25.5q39 0 69.5 26.5t49.5 64.5v224q0 41 -10 58t-38 21v25h134v0v-369q0 -26 3 -37t11.5 -15.5t28.5 -6.5v-25l-124 -25h-5v76h-6q-24 -36 -60 -59.5
t-81 -23.5zM277 -201q-26 0 -44 18t-18 45q0 26 18 44t44 18q25 0 43 -18.5t18 -43.5q0 -27 -17.5 -45t-43.5 -18z" />
    <glyph glyph-name="Ygrave" unicode="&#x1ef2;" horiz-adv-x="679" 
d="M295 122v211l23 -85l-202 329q-27 45 -47 65t-55 28v25h222v-25q-25 -7 -31.5 -19.5t0 -31.5t25.5 -51l129 -213h6l134 213q20 32 26.5 51t0 31.5t-30.5 19.5v25h181v-25q-39 -9 -61.5 -31t-52.5 -69l-201 -318l26 87v-217q0 -38 5.5 -57t18.5 -27t40 -13v-25h-220v25
q27 5 40 13t18.5 27t5.5 57zM403 754h-41l-125 137v3h114z" />
    <glyph glyph-name="ygrave" unicode="&#x1ef3;" horiz-adv-x="506" 
d="M89 -214q-38 0 -65 15v80q32 -13 68 -13q44 0 77 22t53 75l151 393q11 29 14 44.5t-3.5 27t-28.5 18.5v25h146v-25q-32 -12 -48.5 -33t-32.5 -63l-164 -426q-30 -78 -73 -109t-94 -31zM82 355q-18 43 -33.5 62.5t-44.5 30.5v25h190v-25q-24 -7 -31.5 -17.5t-4.5 -26
t16 -46.5l100 -244h23l-59 -129zM314 551h-41l-125 137v3h114z" />
    <glyph glyph-name="arrowleft" unicode="&#x2190;" horiz-adv-x="687" 
d="M638 264v-50h-446v-6l165 -172l-23 -26l-290 229v1l290 229l23 -26l-165 -173v-6h446z" />
    <glyph glyph-name="arrowup" unicode="&#x2191;" horiz-adv-x="512" 
d="M230 0v558h-6l-171 -164l-26 23l229 290h1l229 -290l-26 -23l-171 164h-6v-558h-53z" />
    <glyph glyph-name="arrowright" unicode="&#x2192;" horiz-adv-x="687" 
d="M49 264h446v6l-165 173l23 26l290 -229v-1l-290 -229l-23 26l165 172v6h-446v50z" />
    <glyph glyph-name="arrowdown" unicode="&#x2193;" horiz-adv-x="512" 
d="M230 695h53v-558h6l171 164l26 -23l-229 -290h-1l-229 290l26 23l171 -164h6v558z" />
    <glyph glyph-name="uniF8FF" unicode="&#xf8ff;" horiz-adv-x="893" 
d="M223 160q-4 10 9 28q15 19 41 45q-46 -11 -65 -11q-26 0 -45.5 2.5t-37.5 11.5q-11 6 -20 15.5t-11 20.5t5.5 23t20.5 22q-14 8 -31 21.5t-25 21.5q-31 34 -37 66q-6 30 -2.5 51t16.5 43q22 39 53 61q18 13 64 32q26 12 53 20q52 16 110 22q33 4 54 7l39 6q48 6 118 -1
q47 -5 83.5 -12.5t81.5 -24.5q28 -11 54 -27.5t58 -40.5q42 -33 42 -92q0 -36 -21 -71q-14 -24 -32.5 -39.5t-51.5 -34.5q20 -22 26 -38q15 -43 -48 -59q-23 -6 -47 -7t-58 1l-19 2l-14 1q15 -20 20 -35q3 -10 -0.5 -17.5t-12.5 -9.5q-14 -4 -24.5 -1t-25.5 14
q-33 -30 -59 -5q-21 -16 -33 -16.5t-29 13.5q-20 -11 -28 -10.5t-18 12.5q-20 -15 -39.5 -16.5t-39.5 20.5q-8 -10 -17 -17t-22 -8q-10 -1 -21 1.5t-14 9.5zM419 6q-45 4 -90 29q-5 3 -27 14q-17 8 -29.5 15.5t-22.5 15.5q-13 10 -21 21q-5 10 -2 15q6 10 19 9.5t41 -17.5
q10 10 18.5 14t22.5 3q17 -2 29 -11q19 11 35 11.5t33 -14.5q10 8 16.5 11.5t15.5 4.5t15 -3t14 -12l2 2q6 6 12 9.5t17 3.5q14 0 21 -5t12 -16l0.5 -0.5l0.5 -0.5q9 11 15 16q11 9 19.5 11.5t20.5 -1.5q8 -2 13 -5.5t10 -8.5t4 -10.5t-10 -18.5q-5 -8 -25 -25t-35 -29
q-23 -17 -44 -23.5t-46 -6.5q-35 0 -54 2zM275 340q15 0 33 5l9 2q27 7 45.5 28t16.5 41q-5 41 -38 55q-38 16 -90 12q-34 -3 -67 -17q-21 -9 -35 -20t-14 -22q0 -22 8.5 -36.5t29.5 -24.5q17 -8 46 -16q25 -7 56 -7zM562 350q21 1 63 11q31 8 52 22q26 18 26 37q0 15 -2 22
q-6 21 -24 33q-22 13 -44 13q-26 0 -43 -1.5t-34 -6.5q-29 -9 -45.5 -27.5t-22.5 -48.5q-2 -8 0 -17t8 -14.5t18 -11.5q23 -13 48 -11zM380 239q6 -2 8 -2q5 0 12.5 11t11.5 23q8 24 6 38q-2 9 -10 21q-6 6 -14 -1q-4 -2 -9 -8t-7 -12q-11 -24 -8 -42l3 -17q4 -8 7 -11z
M470 239q3 3 7 11l3 17q3 18 -8 42q-2 6 -7 12t-10 8q-7 7 -13 1q-8 -12 -10 -21q-2 -14 6 -38q4 -12 11.5 -23t12.5 -11q2 0 8 2zM483 605q-64 0 -97 -2q-56 -4 -81 -10q-38 -9 -43 -24q-4 -8 3 -17q14 -16 36 -25q23 -10 67 -14q52 -5 119 -2q44 2 70 14t36 30q6 13 2 20
q-8 14 -38 18q-9 1 -27 5q-35 7 -47 7z" />
    <glyph glyph-name="Q.ss04" horiz-adv-x="790" 
d="M393 170v58l372 -252v-58zM393 -12q-99 0 -178 46.5t-123.5 128.5t-44.5 184t44.5 184t123.5 129t178 47q100 0 178.5 -47t122.5 -129t44 -184t-44 -184t-122.5 -128.5t-178.5 -46.5zM393 41q71 0 125 38.5t83.5 107.5t29.5 160t-29.5 160.5t-83.5 108t-125 38.5
t-125 -38.5t-83.5 -108t-29.5 -160.5t29.5 -160t83.5 -107.5t125 -38.5z" />
    <glyph glyph-name="uni0122.ss06" horiz-adv-x="739" 
d="M410 -12q-105 0 -188 45.5t-129 126.5t-46 183q0 103 50.5 186t140 130.5t201.5 47.5q66 0 124 -12.5t108 -37.5v-144h-28q-23 70 -75 105.5t-127 35.5q-88 0 -153 -40.5t-99.5 -110.5t-34.5 -158q0 -89 32 -158t92.5 -108t144.5 -39q43 0 81 9.5t79 29.5l-34 -44v201
q0 37 -8 56t-26 26.5t-52 10.5v25h237v-25q-24 -3 -36.5 -10.5t-17.5 -26.5t-5 -55v-179q-54 -34 -110.5 -52t-120.5 -18zM335 -255l38 199h92v-3l-103 -196h-27z" />
    <glyph glyph-name="uni0136.ss06" horiz-adv-x="692" 
d="M211 121q0 -38 5.5 -56.5t19 -26.5t41.5 -13v-25h-222v25q27 5 40 13t18.5 26.5t5.5 56.5v453q0 38 -5.5 57t-18.5 27.5t-40 11.5v25h220v-25q-27 -3 -40 -11.5t-18.5 -27.5t-5.5 -57v-453zM447 581q37 38 41 60t-25 29v25h207v-25q-48 -6 -81 -28t-85 -75l-304 -310
l6 85h9zM332 409l365 -404v-5h-129l-304 347zM305 -255l38 199h92v-3l-103 -196h-27z" />
    <glyph glyph-name="Lcaron.ss06" horiz-adv-x="579" 
d="M55 25q27 4 40.5 13t18.5 28t5 55v455q0 38 -5.5 56.5t-18.5 26.5t-40 11v25h220v-25q-28 -3 -41 -11t-18 -26t-5 -57v-526h166q46 0 76 11t48 42t23 90h27v-193h-496v25zM347 506l36 189h87v-3l-97 -186h-26z" />
    <glyph glyph-name="uni013B.ss06" horiz-adv-x="578" 
d="M55 25q27 4 40.5 13t18.5 28t5 55v455q0 38 -5.5 56.5t-18.5 26.5t-40 11v25h220v-25q-28 -3 -41 -11t-18 -26t-5 -57v-526h166q46 0 76 11t48 42t23 90h27v-193h-496v25zM243 -255l38 199h92v-3l-103 -196h-27z" />
    <glyph glyph-name="uni0145.ss06" horiz-adv-x="763" 
d="M53 25q27 5 40 13t18.5 27t5.5 57v510l-46 58v5h136l383 -540h6v420q0 39 -5 57.5t-18 26.5t-40 11v25h181v-25q-27 -3 -40 -11t-18.5 -27t-5.5 -57v-575h-64l-409 576h-6v-454q0 -38 5.5 -57t18.5 -27t40 -13v-25h-182v25zM318 -255l38 199h92v-3l-103 -196h-27z" />
    <glyph glyph-name="uni0156.ss06" horiz-adv-x="659" 
d="M52 25q27 5 40 13t18.5 27.5t5.5 58.5v452q0 36 -5 55t-18.5 27.5t-40.5 11.5v25h263q75 0 131.5 -21.5t87.5 -60.5t31 -92q0 -52 -31.5 -92.5t-89.5 -63.5t-133 -23h-27l85 12l301 -351v-3h-120l-282 340h-60v-216q0 -39 5.5 -58.5t18.5 -27.5t40 -13v-25h-220v25z
M294 390q81 0 125 34t44 96q0 61 -43.5 93t-123.5 32h-88v-255h86zM285 -255l38 199h92v-3l-103 -196h-27z" />
    <glyph glyph-name="uni0218.ss06" horiz-adv-x="540" 
d="M258 -12q-58 0 -111.5 17t-99.5 49v144h26q26 -78 72.5 -118.5t116.5 -40.5q37 0 69.5 15t52 43t19.5 65q0 38 -23.5 66t-78.5 52l-105 47q-68 30 -100.5 77t-32.5 105q0 55 30 100.5t83 71.5t119 26q52 0 99 -13t81 -34v-139h-26q-19 70 -58.5 102.5t-101.5 32.5
q-59 0 -98.5 -32.5t-39.5 -85.5q0 -37 21 -65.5t71 -51.5l107 -48q72 -33 107.5 -76.5t35.5 -106.5q0 -59 -31 -105t-84.5 -71.5t-119.5 -25.5zM192 -255l38 199h92v-3l-103 -196h-27z" />
    <glyph glyph-name="uni021A.ss06" horiz-adv-x="621" 
d="M193 25q30 5 45 13t21 27t6 57v525h-61q-75 0 -110 -25.5t-44 -78.5h-26v152h574v-152h-26q-9 53 -43.5 78.5t-109.5 25.5h-62v-525q0 -38 6 -57t21 -27t45 -13v-25h-236v25zM230 -255l38 199h92v-3l-103 -196h-27z" />
    <glyph glyph-name="AE.ss07" horiz-adv-x="900" 
d="M-14 25q34 12 58.5 35.5t47.5 65.5l310 569h435v-147h-27q-4 37 -19.5 58t-46.5 30t-82 9h-143v-268h99q62 0 88 17.5t28 55.5h27v-196h-27q-1 25 -12.5 41t-36.5 24t-68 8h-98v-277h166q43 0 73.5 10.5t49.5 37.5t22 74h27v-172h-494v25q26 5 38.5 12t19 25t6.5 56v505
h-6l-276 -509q-15 -27 -19.5 -42.5t3.5 -27.5t36 -19v-25h-179v25zM180 222l6 50h262v-50h-268z" />
    <glyph glyph-name="AEacute.ss07" horiz-adv-x="900" 
d="M-14 25q34 12 58.5 35.5t47.5 65.5l310 569h435v-147h-27q-4 37 -19.5 58t-46.5 30t-82 9h-143v-268h99q62 0 88 17.5t28 55.5h27v-196h-27q-1 25 -12.5 41t-36.5 24t-68 8h-98v-277h166q43 0 73.5 10.5t49.5 37.5t22 74h27v-172h-494v25q26 5 38.5 12t19 25t6.5 56v505
h-6l-276 -509q-15 -27 -19.5 -42.5t3.5 -27.5t36 -19v-25h-179v25zM180 222l6 50h262v-50h-268zM570 754l51 140h115v-3l-127 -137h-39z" />
    <glyph glyph-name="uni01E2.ss07" horiz-adv-x="900" 
d="M-14 25q34 12 58.5 35.5t47.5 65.5l310 569h435v-147h-27q-4 37 -19.5 58t-46.5 30t-82 9h-143v-268h99q62 0 88 17.5t28 55.5h27v-196h-27q-1 25 -12.5 41t-36.5 24t-68 8h-98v-277h166q43 0 73.5 10.5t49.5 37.5t22 74h27v-172h-494v25q26 5 38.5 12t19 25t6.5 56v505
h-6l-276 -509q-15 -27 -19.5 -42.5t3.5 -27.5t36 -19v-25h-179v25zM180 222l6 50h262v-50h-268zM763 786v48h-296v-48h296z" />
    <glyph glyph-name="C.ss07" horiz-adv-x="689" 
d="M399 -12q-93 0 -173.5 42.5t-129.5 123.5t-49 191q0 109 50.5 191.5t134 126.5t179.5 44q60 0 110.5 -13t94.5 -37v-148h-27q-24 71 -70.5 108t-111.5 37q-72 0 -130 -38t-90.5 -104.5t-32.5 -150.5q0 -93 36.5 -159.5t99 -101t141.5 -34.5q65 0 118 22t101 65l23 -23
q-56 -71 -121.5 -106.5t-152.5 -35.5z" />
    <glyph glyph-name="Cacute.ss07" horiz-adv-x="689" 
d="M399 -12q-93 0 -173.5 42.5t-129.5 123.5t-49 191q0 109 50.5 191.5t134 126.5t179.5 44q60 0 110.5 -13t94.5 -37v-148h-27q-24 71 -70.5 108t-111.5 37q-72 0 -130 -38t-90.5 -104.5t-32.5 -150.5q0 -93 36.5 -159.5t99 -101t141.5 -34.5q65 0 118 22t101 65l23 -23
q-56 -71 -121.5 -106.5t-152.5 -35.5zM353 754l51 140h115v-3l-127 -137h-39z" />
    <glyph glyph-name="Ccaron.ss07" horiz-adv-x="689" 
d="M399 -12q-93 0 -173.5 42.5t-129.5 123.5t-49 191q0 109 50.5 191.5t134 126.5t179.5 44q60 0 110.5 -13t94.5 -37v-148h-27q-24 71 -70.5 108t-111.5 37q-72 0 -130 -38t-90.5 -104.5t-32.5 -150.5q0 -93 36.5 -159.5t99 -101t141.5 -34.5q65 0 118 22t101 65l23 -23
q-56 -71 -121.5 -106.5t-152.5 -35.5zM538 894l-115 -140h-54l-114 140h49l92 -69l95 69h47z" />
    <glyph glyph-name="Ccedilla.ss07" horiz-adv-x="689" 
d="M399 -12q-93 0 -173.5 42.5t-129.5 123.5t-49 191q0 109 50.5 191.5t134 126.5t179.5 44q60 0 110.5 -13t94.5 -37v-148h-27q-24 71 -70.5 108t-111.5 37q-72 0 -130 -38t-90.5 -104.5t-32.5 -150.5q0 -93 36.5 -159.5t99 -101t141.5 -34.5q65 0 118 22t101 65l23 -23
q-56 -71 -121.5 -106.5t-152.5 -35.5zM378 -203q-31 0 -56 12.5t-49 39.5l17 19q33 -30 71 -30q27 0 42.5 12t15.5 32q0 17 -12.5 27t-31.5 10q-21 0 -38 -12l-3 2l37 99l28 -8l-19 -52l2 -1q11 3 25 3q29 0 50.5 -18t21.5 -50q0 -36 -28.5 -60.5t-72.5 -24.5z" />
    <glyph glyph-name="Ccircumflex.ss07" horiz-adv-x="689" 
d="M399 -12q-93 0 -173.5 42.5t-129.5 123.5t-49 191q0 109 50.5 191.5t134 126.5t179.5 44q60 0 110.5 -13t94.5 -37v-148h-27q-24 71 -70.5 108t-111.5 37q-72 0 -130 -38t-90.5 -104.5t-32.5 -150.5q0 -93 36.5 -159.5t99 -101t141.5 -34.5q65 0 118 22t101 65l23 -23
q-56 -71 -121.5 -106.5t-152.5 -35.5zM258 754l115 140h54l114 -140h-49l-92 69l-95 -69h-47z" />
    <glyph glyph-name="Cdotaccent.ss07" horiz-adv-x="689" 
d="M399 -12q-93 0 -173.5 42.5t-129.5 123.5t-49 191q0 109 50.5 191.5t134 126.5t179.5 44q60 0 110.5 -13t94.5 -37v-148h-27q-24 71 -70.5 108t-111.5 37q-72 0 -130 -38t-90.5 -104.5t-32.5 -150.5q0 -93 36.5 -159.5t99 -101t141.5 -34.5q65 0 118 22t101 65l23 -23
q-56 -71 -121.5 -106.5t-152.5 -35.5zM400 765q-26 0 -44 18t-18 45q0 26 18 44t44 18q25 0 43 -18.5t18 -43.5q0 -27 -17.5 -45t-43.5 -18z" />
    <glyph glyph-name="E.ss07" 
d="M589 172v-172h-534v25q27 5 40 13t18.5 27t5.5 57v452q0 38 -5 57t-18.5 27.5t-40.5 11.5v25h514v-147h-27q-3 36 -18.5 57t-46.5 30.5t-81 9.5h-185v-268h137q62 0 89 17t29 56h27v-196h-27q-1 27 -13 43t-37.5 23t-67.5 7h-137v-277h207q43 0 73.5 11t49 38t21.5 73h27
z" />
    <glyph glyph-name="Eacute.ss07" 
d="M589 172v-172h-534v25q27 5 40 13t18.5 27t5.5 57v452q0 38 -5 57t-18.5 27.5t-40.5 11.5v25h514v-147h-27q-3 36 -18.5 57t-46.5 30.5t-81 9.5h-185v-268h137q62 0 89 17t29 56h27v-196h-27q-1 27 -13 43t-37.5 23t-67.5 7h-137v-277h207q43 0 73.5 11t49 38t21.5 73h27
zM298 754l51 140h115v-3l-127 -137h-39z" />
    <glyph glyph-name="Ebreve.ss07" 
d="M589 172v-172h-534v25q27 5 40 13t18.5 27t5.5 57v452q0 38 -5 57t-18.5 27.5t-40.5 11.5v25h514v-147h-27q-3 36 -18.5 57t-46.5 30.5t-81 9.5h-185v-268h137q62 0 89 17t29 56h27v-196h-27q-1 27 -13 43t-37.5 23t-67.5 7h-137v-277h207q43 0 73.5 11t49 38t21.5 73h27
zM344 756q-53 0 -86 37.5t-35 100.5h39q3 -34 25 -54.5t57 -20.5q36 0 57.5 20.5t24.5 54.5h39q-1 -63 -34.5 -100.5t-86.5 -37.5z" />
    <glyph glyph-name="Ecaron.ss07" 
d="M589 172v-172h-534v25q27 5 40 13t18.5 27t5.5 57v452q0 38 -5 57t-18.5 27.5t-40.5 11.5v25h514v-147h-27q-3 36 -18.5 57t-46.5 30.5t-81 9.5h-185v-268h137q62 0 89 17t29 56h27v-196h-27q-1 27 -13 43t-37.5 23t-67.5 7h-137v-277h207q43 0 73.5 11t49 38t21.5 73h27
zM483 894l-115 -140h-54l-114 140h49l92 -69l95 69h47z" />
    <glyph glyph-name="Ecircumflex.ss07" 
d="M589 172v-172h-534v25q27 5 40 13t18.5 27t5.5 57v452q0 38 -5 57t-18.5 27.5t-40.5 11.5v25h514v-147h-27q-3 36 -18.5 57t-46.5 30.5t-81 9.5h-185v-268h137q62 0 89 17t29 56h27v-196h-27q-1 27 -13 43t-37.5 23t-67.5 7h-137v-277h207q43 0 73.5 11t49 38t21.5 73h27
zM203 754l115 140h54l114 -140h-49l-92 69l-95 -69h-47z" />
    <glyph glyph-name="Edieresis.ss07" 
d="M589 172v-172h-534v25q27 5 40 13t18.5 27t5.5 57v452q0 38 -5 57t-18.5 27.5t-40.5 11.5v25h514v-147h-27q-3 36 -18.5 57t-46.5 30.5t-81 9.5h-185v-268h137q62 0 89 17t29 56h27v-196h-27q-1 27 -13 43t-37.5 23t-67.5 7h-137v-277h207q43 0 73.5 11t49 38t21.5 73h27
zM252 767q-26 0 -43 17.5t-17 43.5q0 25 17.5 42.5t42.5 17.5q24 0 42 -17.5t18 -42.5q0 -26 -17.5 -43.5t-42.5 -17.5zM436 767q-26 0 -43 17.5t-17 43.5q0 25 17.5 42.5t42.5 17.5q24 0 42 -17.5t18 -42.5q0 -26 -17.5 -43.5t-42.5 -17.5z" />
    <glyph glyph-name="Edotaccent.ss07" 
d="M589 172v-172h-534v25q27 5 40 13t18.5 27t5.5 57v452q0 38 -5 57t-18.5 27.5t-40.5 11.5v25h514v-147h-27q-3 36 -18.5 57t-46.5 30.5t-81 9.5h-185v-268h137q62 0 89 17t29 56h27v-196h-27q-1 27 -13 43t-37.5 23t-67.5 7h-137v-277h207q43 0 73.5 11t49 38t21.5 73h27
zM345 765q-26 0 -44 18t-18 45q0 26 18 44t44 18q25 0 43 -18.5t18 -43.5q0 -27 -17.5 -45t-43.5 -18z" />
    <glyph glyph-name="Egrave.ss07" 
d="M589 172v-172h-534v25q27 5 40 13t18.5 27t5.5 57v452q0 38 -5 57t-18.5 27.5t-40.5 11.5v25h514v-147h-27q-3 36 -18.5 57t-46.5 30.5t-81 9.5h-185v-268h137q62 0 89 17t29 56h27v-196h-27q-1 27 -13 43t-37.5 23t-67.5 7h-137v-277h207q43 0 73.5 11t49 38t21.5 73h27
zM389 754h-41l-125 137v3h114z" />
    <glyph glyph-name="Emacron.ss07" 
d="M589 172v-172h-534v25q27 5 40 13t18.5 27t5.5 57v452q0 38 -5 57t-18.5 27.5t-40.5 11.5v25h514v-147h-27q-3 36 -18.5 57t-46.5 30.5t-81 9.5h-185v-268h137q62 0 89 17t29 56h27v-196h-27q-1 27 -13 43t-37.5 23t-67.5 7h-137v-277h207q43 0 73.5 11t49 38t21.5 73h27
zM491 786v48h-296v-48h296z" />
    <glyph glyph-name="Eogonek.ss07" 
d="M589 172v-172h-534v25q27 5 40 13t18.5 27t5.5 57v452q0 38 -5 57t-18.5 27.5t-40.5 11.5v25h514v-147h-27q-3 36 -18.5 57t-46.5 30.5t-81 9.5h-185v-268h137q62 0 89 17t29 56h27v-196h-27q-1 27 -13 43t-37.5 23t-67.5 7h-137v-277h207q43 0 73.5 11t49 38t21.5 73h27
zM526 -202q-40 0 -67 23.5t-27 62.5q0 44 38.5 78t93.5 51l25 -13q-51 -24 -75 -49.5t-24 -54.5q0 -24 14 -39.5t39 -15.5q28 0 50 18l17 -19q-17 -21 -37.5 -31.5t-46.5 -10.5z" />
    <glyph glyph-name="F.ss07" horiz-adv-x="570" 
d="M55 25q27 5 40.5 13.5t18.5 27.5t5 57v452q0 38 -5 56.5t-18 26.5t-41 12v25h478v-147h-27q-3 36 -19 57t-47 30.5t-81 9.5h-148v-276h117q62 0 88.5 17t28.5 56h27v-196h-27q-2 39 -28.5 56t-88.5 17h-117v-196q0 -39 5.5 -58t20 -27.5t45.5 -12.5v-25h-227v25z" />
    <glyph glyph-name="G.ss07" horiz-adv-x="739" 
d="M410 -12q-105 0 -188 45.5t-129 126.5t-46 183q0 103 50.5 186t140 130.5t201.5 47.5q66 0 124 -12.5t108 -37.5v-144h-28q-23 70 -75 105.5t-127 35.5q-88 0 -153 -40.5t-99.5 -110.5t-34.5 -158q0 -89 32 -158t92.5 -108t144.5 -39q43 0 81 9.5t79 29.5l-34 -44v201
q0 37 -8 56t-26 26.5t-52 10.5v25h237v-25q-24 -3 -36.5 -10.5t-17.5 -26.5t-5 -55v-179q-54 -34 -110.5 -52t-120.5 -18z" />
    <glyph glyph-name="Gbreve.ss07" horiz-adv-x="739" 
d="M410 -12q-105 0 -188 45.5t-129 126.5t-46 183q0 103 50.5 186t140 130.5t201.5 47.5q66 0 124 -12.5t108 -37.5v-144h-28q-23 70 -75 105.5t-127 35.5q-88 0 -153 -40.5t-99.5 -110.5t-34.5 -158q0 -89 32 -158t92.5 -108t144.5 -39q43 0 81 9.5t79 29.5l-34 -44v201
q0 37 -8 56t-26 26.5t-52 10.5v25h237v-25q-24 -3 -36.5 -10.5t-17.5 -26.5t-5 -55v-179q-54 -34 -110.5 -52t-120.5 -18zM410 756q-53 0 -86 37.5t-35 100.5h39q3 -34 25 -54.5t57 -20.5q36 0 57.5 20.5t24.5 54.5h39q-1 -63 -34.5 -100.5t-86.5 -37.5z" />
    <glyph glyph-name="Gcircumflex.ss07" horiz-adv-x="739" 
d="M410 -12q-105 0 -188 45.5t-129 126.5t-46 183q0 103 50.5 186t140 130.5t201.5 47.5q66 0 124 -12.5t108 -37.5v-144h-28q-23 70 -75 105.5t-127 35.5q-88 0 -153 -40.5t-99.5 -110.5t-34.5 -158q0 -89 32 -158t92.5 -108t144.5 -39q43 0 81 9.5t79 29.5l-34 -44v201
q0 37 -8 56t-26 26.5t-52 10.5v25h237v-25q-24 -3 -36.5 -10.5t-17.5 -26.5t-5 -55v-179q-54 -34 -110.5 -52t-120.5 -18zM269 754l115 140h54l114 -140h-49l-92 69l-95 -69h-47z" />
    <glyph glyph-name="uni0122.ss07" horiz-adv-x="739" 
d="M410 -12q-105 0 -188 45.5t-129 126.5t-46 183q0 103 50.5 186t140 130.5t201.5 47.5q66 0 124 -12.5t108 -37.5v-144h-28q-23 70 -75 105.5t-127 35.5q-88 0 -153 -40.5t-99.5 -110.5t-34.5 -158q0 -89 32 -158t92.5 -108t144.5 -39q43 0 81 9.5t79 29.5l-34 -44v201
q0 37 -8 56t-26 26.5t-52 10.5v25h237v-25q-24 -3 -36.5 -10.5t-17.5 -26.5t-5 -55v-179q-54 -34 -110.5 -52t-120.5 -18zM361 -255l75 126l17 -10q-16 -11 -35 -11q-23 0 -39 14.5t-16 37.5t15 38t37 15q25 0 41 -17t16 -43q0 -14 -5 -27.5t-14 -29.5l-52 -93h-40z" />
    <glyph glyph-name="Gdotaccent.ss07" horiz-adv-x="739" 
d="M410 -12q-105 0 -188 45.5t-129 126.5t-46 183q0 103 50.5 186t140 130.5t201.5 47.5q66 0 124 -12.5t108 -37.5v-144h-28q-23 70 -75 105.5t-127 35.5q-88 0 -153 -40.5t-99.5 -110.5t-34.5 -158q0 -89 32 -158t92.5 -108t144.5 -39q43 0 81 9.5t79 29.5l-34 -44v201
q0 37 -8 56t-26 26.5t-52 10.5v25h237v-25q-24 -3 -36.5 -10.5t-17.5 -26.5t-5 -55v-179q-54 -34 -110.5 -52t-120.5 -18zM411 765q-26 0 -44 18t-18 45q0 26 18 44t44 18q25 0 43 -18.5t18 -43.5q0 -27 -17.5 -45t-43.5 -18z" />
    <glyph glyph-name="L.ss07" horiz-adv-x="578" 
d="M55 25q27 4 40.5 13t18.5 28t5 55v455q0 38 -5.5 56.5t-18.5 26.5t-40 11v25h220v-25q-28 -3 -41 -11t-18 -26t-5 -57v-526h166q46 0 76 11t48 42t23 90h27v-193h-496v25z" />
    <glyph glyph-name="Lacute.ss07" horiz-adv-x="578" 
d="M55 25q27 4 40.5 13t18.5 28t5 55v455q0 38 -5.5 56.5t-18.5 26.5t-40 11v25h220v-25q-28 -3 -41 -11t-18 -26t-5 -57v-526h166q46 0 76 11t48 42t23 90h27v-193h-496v25zM121 754l51 140h115v-3l-127 -137h-39z" />
    <glyph glyph-name="Lcaron.ss07" horiz-adv-x="578" 
d="M55 25q27 4 40.5 13t18.5 28t5 55v455q0 38 -5.5 56.5t-18.5 26.5t-40 11v25h220v-25q-28 -3 -41 -11t-18 -26t-5 -57v-526h166q46 0 76 11t48 42t23 90h27v-193h-496v25zM349 505l71 119l16 -9q-13 -10 -33 -10q-21 0 -36.5 13.5t-15.5 35.5q0 21 14 35.5t35 14.5
q25 0 40 -16t15 -41q0 -13 -4.5 -25t-13.5 -28l-0.5 -0.5l-0.5 -0.5l-49 -88h-38z" />
    <glyph glyph-name="uni013B.ss07" horiz-adv-x="578" 
d="M55 25q27 4 40.5 13t18.5 28t5 55v455q0 38 -5.5 56.5t-18.5 26.5t-40 11v25h220v-25q-28 -3 -41 -11t-18 -26t-5 -57v-526h166q46 0 76 11t48 42t23 90h27v-193h-496v25zM269 -255l75 126l17 -10q-16 -11 -35 -11q-23 0 -39 14.5t-16 37.5t15 38t37 15q25 0 41 -17
t16 -43q0 -14 -5 -27.5t-14 -29.5l-52 -93h-40z" />
    <glyph glyph-name="Ldot.ss07" horiz-adv-x="578" 
d="M55 25q27 4 40.5 13t18.5 28t5 55v455q0 38 -5.5 56.5t-18.5 26.5t-40 11v25h220v-25q-28 -3 -41 -11t-18 -26t-5 -57v-526h166q46 0 76 11t48 42t23 90h27v-193h-496v25zM370 229q-27 0 -46.5 19.5t-19.5 46.5t19.5 46.5t46.5 19.5t46.5 -19.5t19.5 -46.5t-19.5 -46.5
t-46.5 -19.5z" />
    <glyph glyph-name="Lslash.ss07" horiz-adv-x="603" 
d="M80 25q27 4 40.5 13t18.5 28t5 55v455q0 38 -5.5 56.5t-18.5 26.5t-40 11v25h220v-25q-28 -3 -41 -11t-18 -26t-5 -57v-526h166q46 0 76 11t48 42t23 90h27v-193h-496v25zM47 185v56l376 213v-56z" />
    <glyph glyph-name="OE.ss07" horiz-adv-x="910" 
d="M425 0q-111 0 -196.5 44t-133.5 123t-48 180t48 180.5t133.5 123.5t196.5 44h422v-147h-27q-4 51 -37.5 74t-106.5 23h-147v-268h101q59 0 85.5 17.5t28.5 55.5h27v-196h-27q-1 39 -28 56t-86 17h-101v-277h168q44 0 74 11.5t48 38.5t21 72h27v-172h-442zM415 50h21v595
h-21q-73 0 -132.5 -36t-93.5 -103.5t-34 -158.5q0 -90 34 -157.5t93.5 -103.5t132.5 -36z" />
    <glyph glyph-name="Q.ss07" horiz-adv-x="785" 
d="M391 -12q-99 0 -177 46.5t-122 128.5t-44 184t44 184t122 129t177 47t177 -46.5t122 -128t44 -182.5q0 -68 -23.5 -127t-62.5 -101.5t-87 -65.5v-33q-50 -19 -92.5 -27t-77.5 -8zM473 17l34 33h277v-90h-6zM391 41q71 0 124.5 38t82.5 107.5t29 160.5q0 92 -29.5 161.5
t-83 107.5t-123.5 38t-123.5 -38t-83 -107.5t-29.5 -161.5q0 -91 29.5 -160.5t83 -107.5t123.5 -38z" />
    <glyph glyph-name="S.ss07" horiz-adv-x="540" 
d="M258 -12q-58 0 -111.5 17t-99.5 49v144h26q26 -78 72.5 -118.5t116.5 -40.5q37 0 69.5 15t52 43t19.5 65t-23.5 65.5t-78.5 52.5l-105 47q-67 30 -100 78t-33 104q0 55 30 100.5t83 71.5t119 26q52 0 99 -13t81 -34v-139h-26q-19 70 -58.5 102.5t-101.5 32.5
q-59 0 -98.5 -32.5t-39.5 -85.5q0 -36 21 -65t71 -52l107 -48q70 -31 106.5 -75.5t36.5 -107.5q0 -59 -31 -105t-84.5 -71.5t-119.5 -25.5z" />
    <glyph glyph-name="Sacute.ss07" horiz-adv-x="540" 
d="M258 -12q-58 0 -111.5 17t-99.5 49v144h26q26 -78 72.5 -118.5t116.5 -40.5q37 0 69.5 15t52 43t19.5 65t-23.5 65.5t-78.5 52.5l-105 47q-67 30 -100 78t-33 104q0 55 30 100.5t83 71.5t119 26q52 0 99 -13t81 -34v-139h-26q-19 70 -58.5 102.5t-101.5 32.5
q-59 0 -98.5 -32.5t-39.5 -85.5q0 -36 21 -65t71 -52l107 -48q70 -31 106.5 -75.5t36.5 -107.5q0 -59 -31 -105t-84.5 -71.5t-119.5 -25.5zM235 754l51 140h115v-3l-127 -137h-39z" />
    <glyph glyph-name="Scaron.ss07" horiz-adv-x="540" 
d="M258 -12q-58 0 -111.5 17t-99.5 49v144h26q26 -78 72.5 -118.5t116.5 -40.5q37 0 69.5 15t52 43t19.5 65t-23.5 65.5t-78.5 52.5l-105 47q-67 30 -100 78t-33 104q0 55 30 100.5t83 71.5t119 26q52 0 99 -13t81 -34v-139h-26q-19 70 -58.5 102.5t-101.5 32.5
q-59 0 -98.5 -32.5t-39.5 -85.5q0 -36 21 -65t71 -52l107 -48q70 -31 106.5 -75.5t36.5 -107.5q0 -59 -31 -105t-84.5 -71.5t-119.5 -25.5zM420 894l-115 -140h-54l-114 140h49l92 -69l95 69h47z" />
    <glyph glyph-name="Scedilla.ss07" horiz-adv-x="540" 
d="M258 -12q-58 0 -111.5 17t-99.5 49v144h26q26 -78 72.5 -118.5t116.5 -40.5q37 0 69.5 15t52 43t19.5 65t-23.5 65.5t-78.5 52.5l-105 47q-67 30 -100 78t-33 104q0 55 30 100.5t83 71.5t119 26q52 0 99 -13t81 -34v-139h-26q-19 70 -58.5 102.5t-101.5 32.5
q-59 0 -98.5 -32.5t-39.5 -85.5q0 -36 21 -65t71 -52l107 -48q70 -31 106.5 -75.5t36.5 -107.5q0 -59 -31 -105t-84.5 -71.5t-119.5 -25.5zM268 -203q-31 0 -56 12.5t-49 39.5l17 19q33 -30 71 -30q27 0 42.5 12t15.5 32q0 17 -12.5 27t-31.5 10q-21 0 -38 -12l-3 2l37 99
l28 -8l-19 -52l2 -1q11 3 25 3q29 0 50.5 -18t21.5 -50q0 -36 -28.5 -60.5t-72.5 -24.5z" />
    <glyph glyph-name="Scircumflex.ss07" horiz-adv-x="540" 
d="M258 -12q-58 0 -111.5 17t-99.5 49v144h26q26 -78 72.5 -118.5t116.5 -40.5q37 0 69.5 15t52 43t19.5 65t-23.5 65.5t-78.5 52.5l-105 47q-67 30 -100 78t-33 104q0 55 30 100.5t83 71.5t119 26q52 0 99 -13t81 -34v-139h-26q-19 70 -58.5 102.5t-101.5 32.5
q-59 0 -98.5 -32.5t-39.5 -85.5q0 -36 21 -65t71 -52l107 -48q70 -31 106.5 -75.5t36.5 -107.5q0 -59 -31 -105t-84.5 -71.5t-119.5 -25.5zM140 754l115 140h54l114 -140h-49l-92 69l-95 -69h-47z" />
    <glyph glyph-name="uni0218.ss07" horiz-adv-x="540" 
d="M258 -12q-58 0 -111.5 17t-99.5 49v144h26q26 -78 72.5 -118.5t116.5 -40.5q37 0 69.5 15t52 43t19.5 65t-23.5 65.5t-78.5 52.5l-105 47q-67 30 -100 78t-33 104q0 55 30 100.5t83 71.5t119 26q52 0 99 -13t81 -34v-139h-26q-19 70 -58.5 102.5t-101.5 32.5
q-59 0 -98.5 -32.5t-39.5 -85.5q0 -36 21 -65t71 -52l107 -48q70 -31 106.5 -75.5t36.5 -107.5q0 -59 -31 -105t-84.5 -71.5t-119.5 -25.5zM218 -255l75 126l17 -10q-16 -11 -35 -11q-23 0 -39 14.5t-16 37.5t15 38t37 15q25 0 41 -17t16 -43q0 -14 -5 -27.5t-14 -29.5
l-52 -93h-40z" />
    <glyph glyph-name="T.ss07" horiz-adv-x="622" 
d="M193 25q30 5 45 13t21 27t6 57v525h-61q-51 0 -83 -11.5t-48.5 -34.5t-22.5 -58h-26v152h574v-152h-26q-9 53 -43.5 78.5t-109.5 25.5h-62v-525q0 -38 6 -57t21 -27t45 -13v-25h-236v25z" />
    <glyph glyph-name="Tbar.ss07" horiz-adv-x="622" 
d="M193 25q30 5 45 13t21 27t6 57v525h-61q-51 0 -83 -11.5t-48.5 -34.5t-22.5 -58h-26v152h574v-152h-26q-9 53 -43.5 78.5t-109.5 25.5h-62v-525q0 -38 6 -57t21 -27t45 -13v-25h-236v25zM131 395h359v-43h-359v43z" />
    <glyph glyph-name="Tcaron.ss07" horiz-adv-x="622" 
d="M193 25q30 5 45 13t21 27t6 57v525h-61q-51 0 -83 -11.5t-48.5 -34.5t-22.5 -58h-26v152h574v-152h-26q-9 53 -43.5 78.5t-109.5 25.5h-62v-525q0 -38 6 -57t21 -27t45 -13v-25h-236v25zM451 894l-115 -140h-54l-114 140h49l92 -69l95 69h47z" />
    <glyph glyph-name="uni0162.ss07" horiz-adv-x="622" 
d="M193 25q30 5 45 13t21 27t6 57v525h-61q-51 0 -83 -11.5t-48.5 -34.5t-22.5 -58h-26v152h574v-152h-26q-9 53 -43.5 78.5t-109.5 25.5h-62v-525q0 -38 6 -57t21 -27t45 -13v-25h-236v25zM306 -203q-31 0 -56 12.5t-49 39.5l17 19q33 -30 71 -30q27 0 42.5 12t15.5 32
q0 17 -12.5 27t-31.5 10q-21 0 -38 -12l-3 2l37 99l28 -8l-19 -52l2 -1q10 3 25 3q29 0 50.5 -18t21.5 -50q0 -36 -28.5 -60.5t-72.5 -24.5z" />
    <glyph glyph-name="uni021A.ss07" horiz-adv-x="622" 
d="M193 25q30 5 45 13t21 27t6 57v525h-61q-51 0 -83 -11.5t-48.5 -34.5t-22.5 -58h-26v152h574v-152h-26q-9 53 -43.5 78.5t-109.5 25.5h-62v-525q0 -38 6 -57t21 -27t45 -13v-25h-236v25zM256 -255l75 126l17 -10q-16 -11 -35 -11q-23 0 -39 14.5t-16 37.5t15 38t37 15
q25 0 41 -17t16 -43q0 -14 -5 -27.5t-14 -29.5l-52 -93h-40z" />
    <glyph glyph-name="Z.ss07" horiz-adv-x="608" 
d="M36 0v45l410 596v4h-228q-63 0 -95.5 -26.5t-42.5 -87.5h-26v164h509v-45l-410 -596v-4h229q47 0 78 11.5t49.5 39.5t25.5 78h26v-179h-525z" />
    <glyph glyph-name="Zacute.ss07" horiz-adv-x="608" 
d="M36 0v45l410 596v4h-228q-63 0 -95.5 -26.5t-42.5 -87.5h-26v164h509v-45l-410 -596v-4h229q47 0 78 11.5t49.5 39.5t25.5 78h26v-179h-525zM264 754l51 140h115v-3l-127 -137h-39z" />
    <glyph glyph-name="Zcaron.ss07" horiz-adv-x="608" 
d="M36 0v45l410 596v4h-228q-63 0 -95.5 -26.5t-42.5 -87.5h-26v164h509v-45l-410 -596v-4h229q47 0 78 11.5t49.5 39.5t25.5 78h26v-179h-525zM449 894l-115 -140h-54l-114 140h49l92 -69l95 69h47z" />
    <glyph glyph-name="Zdotaccent.ss07" horiz-adv-x="608" 
d="M36 0v45l410 596v4h-228q-63 0 -95.5 -26.5t-42.5 -87.5h-26v164h509v-45l-410 -596v-4h229q47 0 78 11.5t49.5 39.5t25.5 78h26v-179h-525zM311 765q-26 0 -44 18t-18 45q0 26 18 44t44 18q25 0 43 -18.5t18 -43.5q0 -27 -17.5 -45t-43.5 -18z" />
    <glyph glyph-name="uni0122.ss06.ss07" horiz-adv-x="739" 
d="M410 -12q-105 0 -188 45.5t-129 126.5t-46 183q0 103 50.5 186t140 130.5t201.5 47.5q66 0 124 -12.5t108 -37.5v-144h-28q-23 70 -75 105.5t-127 35.5q-88 0 -153 -40.5t-99.5 -110.5t-34.5 -158q0 -89 32 -158t92.5 -108t144.5 -39q43 0 81 9.5t79 29.5l-34 -44v201
q0 37 -8 56t-26 26.5t-52 10.5v25h237v-25q-24 -3 -36.5 -10.5t-17.5 -26.5t-5 -55v-179q-54 -34 -110.5 -52t-120.5 -18zM335 -255l38 199h92v-3l-103 -196h-27z" />
    <glyph glyph-name="Lcaron.ss06.ss07" horiz-adv-x="579" 
d="M55 25q27 4 40.5 13t18.5 28t5 55v455q0 38 -5.5 56.5t-18.5 26.5t-40 11v25h220v-25q-28 -3 -41 -11t-18 -26t-5 -57v-526h166q46 0 76 11t48 42t23 90h27v-193h-496v25zM347 506l36 189h87v-3l-97 -186h-26z" />
    <glyph glyph-name="uni013B.ss06.ss07" horiz-adv-x="578" 
d="M55 25q27 4 40.5 13t18.5 28t5 55v455q0 38 -5.5 56.5t-18.5 26.5t-40 11v25h220v-25q-28 -3 -41 -11t-18 -26t-5 -57v-526h166q46 0 76 11t48 42t23 90h27v-193h-496v25zM243 -255l38 199h92v-3l-103 -196h-27z" />
    <glyph glyph-name="uni0218.ss06.ss07" horiz-adv-x="540" 
d="M258 -12q-58 0 -111.5 17t-99.5 49v144h26q26 -78 72.5 -118.5t116.5 -40.5q37 0 69.5 15t52 43t19.5 65t-23.5 65.5t-78.5 52.5l-105 47q-67 30 -100 78t-33 104q0 55 30 100.5t83 71.5t119 26q52 0 99 -13t81 -34v-139h-26q-19 70 -58.5 102.5t-101.5 32.5
q-59 0 -98.5 -32.5t-39.5 -85.5q0 -36 21 -65t71 -52l107 -48q70 -31 106.5 -75.5t36.5 -107.5q0 -59 -31 -105t-84.5 -71.5t-119.5 -25.5zM192 -255l38 199h92v-3l-103 -196h-27z" />
    <glyph glyph-name="uni021A.ss06.ss07" horiz-adv-x="622" 
d="M193 25q30 5 45 13t21 27t6 57v525h-61q-51 0 -83 -11.5t-48.5 -34.5t-22.5 -58h-26v152h574v-152h-26q-9 53 -43.5 78.5t-109.5 25.5h-62v-525q0 -38 6 -57t21 -27t45 -13v-25h-236v25zM230 -255l38 199h92v-3l-103 -196h-27z" />
    <glyph glyph-name="i.locl" horiz-adv-x="270" 
d="M181 102q0 -31 3 -45.5t12 -21t28 -10.5v-25h-172v25q20 4 28.5 10.5t11.5 21t3 45.5v270q0 24 -4.5 35.5t-14.5 16t-31 6.5v25l130 23h6v-376zM136 562q-26 0 -44 18t-18 45q0 26 18 44t44 18q25 0 43 -18.5t18 -43.5q0 -27 -17.5 -45t-43.5 -18z" />
    <glyph glyph-name="a.ss01" horiz-adv-x="565" 
d="M236 -12q-50 0 -94 28t-71.5 82t-27.5 127q0 74 30.5 133.5t82 93t112.5 33.5q43 0 78 -15.5t57 -38.5h6l43 42h26v-361q0 -30 2.5 -42.5t11 -17.5t29.5 -7v-25l-124 -25h-5v76h-6q-29 -42 -66.5 -62.5t-83.5 -20.5zM269 55q42 0 73.5 26t49.5 64v144q0 47 -15 80.5
t-42 51t-61 17.5q-42 0 -74 -24.5t-50 -69t-18 -101.5q0 -85 37 -136.5t100 -51.5z" />
    <glyph glyph-name="aacute.ss01" horiz-adv-x="565" 
d="M236 -12q-50 0 -94 28t-71.5 82t-27.5 127q0 74 30.5 133.5t82 93t112.5 33.5q43 0 78 -15.5t57 -38.5h6l43 42h26v-361q0 -30 2.5 -42.5t11 -17.5t29.5 -7v-25l-124 -25h-5v76h-6q-29 -42 -66.5 -62.5t-83.5 -20.5zM269 55q42 0 73.5 26t49.5 64v144q0 47 -15 80.5
t-42 51t-61 17.5q-42 0 -74 -24.5t-50 -69t-18 -101.5q0 -85 37 -136.5t100 -51.5zM235 551l51 140h115v-3l-127 -137h-39z" />
    <glyph glyph-name="abreve.ss01" horiz-adv-x="565" 
d="M236 -12q-50 0 -94 28t-71.5 82t-27.5 127q0 74 30.5 133.5t82 93t112.5 33.5q43 0 78 -15.5t57 -38.5h6l43 42h26v-361q0 -30 2.5 -42.5t11 -17.5t29.5 -7v-25l-124 -25h-5v76h-6q-29 -42 -66.5 -62.5t-83.5 -20.5zM269 55q42 0 73.5 26t49.5 64v144q0 47 -15 80.5
t-42 51t-61 17.5q-42 0 -74 -24.5t-50 -69t-18 -101.5q0 -85 37 -136.5t100 -51.5zM279 553q-53 0 -86 37.5t-35 100.5h39q3 -34 25 -54.5t57 -20.5q36 0 57.5 20.5t24.5 54.5h39q-1 -63 -34.5 -100.5t-86.5 -37.5z" />
    <glyph glyph-name="acircumflex.ss01" horiz-adv-x="565" 
d="M236 -12q-50 0 -94 28t-71.5 82t-27.5 127q0 74 30.5 133.5t82 93t112.5 33.5q43 0 78 -15.5t57 -38.5h6l43 42h26v-361q0 -30 2.5 -42.5t11 -17.5t29.5 -7v-25l-124 -25h-5v76h-6q-29 -42 -66.5 -62.5t-83.5 -20.5zM269 55q42 0 73.5 26t49.5 64v144q0 47 -15 80.5
t-42 51t-61 17.5q-42 0 -74 -24.5t-50 -69t-18 -101.5q0 -85 37 -136.5t100 -51.5zM137 551l115 140h54l114 -140h-49l-92 69l-95 -69h-47z" />
    <glyph glyph-name="adieresis.ss01" horiz-adv-x="565" 
d="M236 -12q-50 0 -94 28t-71.5 82t-27.5 127q0 74 30.5 133.5t82 93t112.5 33.5q43 0 78 -15.5t57 -38.5h6l43 42h26v-361q0 -30 2.5 -42.5t11 -17.5t29.5 -7v-25l-124 -25h-5v76h-6q-29 -42 -66.5 -62.5t-83.5 -20.5zM269 55q42 0 73.5 26t49.5 64v144q0 47 -15 80.5
t-42 51t-61 17.5q-42 0 -74 -24.5t-50 -69t-18 -101.5q0 -85 37 -136.5t100 -51.5zM186 564q-26 0 -43 17.5t-17 43.5q0 25 17.5 42.5t42.5 17.5q24 0 42 -17.5t18 -42.5q0 -26 -17.5 -43.5t-42.5 -17.5zM370 564q-26 0 -43 17.5t-17 43.5q0 25 17.5 42.5t42.5 17.5
q24 0 42 -17.5t18 -42.5q0 -26 -17.5 -43.5t-42.5 -17.5z" />
    <glyph glyph-name="uni0227.ss01" horiz-adv-x="565" 
d="M236 -12q-50 0 -94 28t-71.5 82t-27.5 127q0 74 30.5 133.5t82 93t112.5 33.5q43 0 78 -15.5t57 -38.5h6l43 42h26v-361q0 -30 2.5 -42.5t11 -17.5t29.5 -7v-25l-124 -25h-5v76h-6q-29 -42 -66.5 -62.5t-83.5 -20.5zM269 55q42 0 73.5 26t49.5 64v144q0 47 -15 80.5
t-42 51t-61 17.5q-42 0 -74 -24.5t-50 -69t-18 -101.5q0 -85 37 -136.5t100 -51.5zM279 562q-26 0 -44 18t-18 45q0 26 18 44t44 18q25 0 43 -18.5t18 -43.5q0 -27 -17.5 -45t-43.5 -18z" />
    <glyph glyph-name="agrave.ss01" horiz-adv-x="565" 
d="M236 -12q-50 0 -94 28t-71.5 82t-27.5 127q0 74 30.5 133.5t82 93t112.5 33.5q43 0 78 -15.5t57 -38.5h6l43 42h26v-361q0 -30 2.5 -42.5t11 -17.5t29.5 -7v-25l-124 -25h-5v76h-6q-29 -42 -66.5 -62.5t-83.5 -20.5zM269 55q42 0 73.5 26t49.5 64v144q0 47 -15 80.5
t-42 51t-61 17.5q-42 0 -74 -24.5t-50 -69t-18 -101.5q0 -85 37 -136.5t100 -51.5zM323 551h-41l-125 137v3h114z" />
    <glyph glyph-name="amacron.ss01" horiz-adv-x="565" 
d="M236 -12q-50 0 -94 28t-71.5 82t-27.5 127q0 74 30.5 133.5t82 93t112.5 33.5q43 0 78 -15.5t57 -38.5h6l43 42h26v-361q0 -30 2.5 -42.5t11 -17.5t29.5 -7v-25l-124 -25h-5v76h-6q-29 -42 -66.5 -62.5t-83.5 -20.5zM269 55q42 0 73.5 26t49.5 64v144q0 47 -15 80.5
t-42 51t-61 17.5q-42 0 -74 -24.5t-50 -69t-18 -101.5q0 -85 37 -136.5t100 -51.5zM428 583v48h-296v-48h296z" />
    <glyph glyph-name="aogonek.ss01" horiz-adv-x="565" 
d="M391 -202q-40 0 -66.5 24t-26.5 64q0 47 38 81.5t96 50.5l-41 -27v80h-6q-29 -42 -66.5 -62.5t-83.5 -20.5q-50 0 -94 28t-71.5 82t-27.5 127q0 74 30.5 133.5t82 93t112.5 33.5q43 0 77 -15t58 -39h6l43 42h26v-361q0 -30 2.5 -42.5t11 -17.5t29.5 -7v-25l-51 -13
q-56 -14 -84.5 -44.5t-28.5 -65.5q0 -25 14.5 -40.5t38.5 -15.5q28 0 50 18l17 -19q-17 -21 -37.5 -31.5t-47.5 -10.5zM269 55q42 0 74 27t48 64v143q0 47 -15 80.5t-42 51t-61 17.5q-42 0 -74 -24.5t-50 -69t-18 -101.5q0 -85 37.5 -136.5t100.5 -51.5z" />
    <glyph glyph-name="aring.ss01" horiz-adv-x="565" 
d="M236 -12q-50 0 -94 28t-71.5 82t-27.5 127q0 74 30.5 133.5t82 93t112.5 33.5q43 0 78 -15.5t57 -38.5h6l43 42h26v-361q0 -30 2.5 -42.5t11 -17.5t29.5 -7v-25l-124 -25h-5v76h-6q-29 -42 -66.5 -62.5t-83.5 -20.5zM269 55q42 0 73.5 26t49.5 64v144q0 47 -15 80.5
t-42 51t-61 17.5q-42 0 -74 -24.5t-50 -69t-18 -101.5q0 -85 37 -136.5t100 -51.5zM279 530q-40 0 -68 27.5t-28 66.5t28 66.5t68 27.5q39 0 67 -27.5t28 -66.5t-28 -66.5t-67 -27.5zM279 570q23 0 37.5 15t14.5 39t-14.5 39t-37.5 15t-38 -15t-15 -39t15 -39t38 -15z" />
    <glyph glyph-name="atilde.ss01" horiz-adv-x="565" 
d="M236 -12q-50 0 -94 28t-71.5 82t-27.5 127q0 74 30.5 133.5t82 93t112.5 33.5q43 0 78 -15.5t57 -38.5h6l43 42h26v-361q0 -30 2.5 -42.5t11 -17.5t29.5 -7v-25l-124 -25h-5v76h-6q-29 -42 -66.5 -62.5t-83.5 -20.5zM269 55q42 0 73.5 26t49.5 64v144q0 47 -15 80.5
t-42 51t-61 17.5q-42 0 -74 -24.5t-50 -69t-18 -101.5q0 -85 37 -136.5t100 -51.5zM344 555q-20 0 -36.5 7.5t-36.5 21.5l-17 13q-15 11 -25.5 15t-22.5 4q-20 0 -31 -13.5t-17 -43.5h-37q4 59 30 88t63 29q21 0 37 -7t36 -22l17 -12q16 -11 25.5 -15t22.5 -4q19 0 30 13.5
t18 43.5h37q-4 -59 -30.5 -88.5t-62.5 -29.5z" />
    <glyph glyph-name="a.ss02" horiz-adv-x="481" 
d="M164 -12q-50 0 -84.5 32.5t-34.5 82.5q0 54 40.5 84.5t120.5 53.5l107 30l2 -42l-81 -29q-35 -13 -55.5 -23t-32.5 -24.5t-12 -35.5q0 -30 19.5 -47.5t48.5 -17.5q33 0 60.5 22.5t48.5 55.5v181q0 55 -27 82t-76 27q-33 0 -67.5 -11.5t-71.5 -35.5l-19 25q40 40 88 63.5
t98 23.5q48 0 84 -19.5t56.5 -58.5t20.5 -96v-207q0 -26 3 -37t11.5 -15.5t28.5 -6.5v-25l-124 -25h-5v74h-6q-28 -41 -62.5 -61t-78.5 -20z" />
    <glyph glyph-name="aacute.ss02" horiz-adv-x="481" 
d="M164 -12q-50 0 -84.5 32.5t-34.5 82.5q0 54 40.5 84.5t120.5 53.5l107 30l2 -42l-81 -29q-35 -13 -55.5 -23t-32.5 -24.5t-12 -35.5q0 -30 19.5 -47.5t48.5 -17.5q33 0 60.5 22.5t48.5 55.5v181q0 55 -27 82t-76 27q-33 0 -67.5 -11.5t-71.5 -35.5l-19 25q40 40 88 63.5
t98 23.5q48 0 84 -19.5t56.5 -58.5t20.5 -96v-207q0 -26 3 -37t11.5 -15.5t28.5 -6.5v-25l-124 -25h-5v74h-6q-28 -41 -62.5 -61t-78.5 -20zM188 551l51 140h115v-3l-127 -137h-39z" />
    <glyph glyph-name="abreve.ss02" horiz-adv-x="481" 
d="M164 -12q-50 0 -84.5 32.5t-34.5 82.5q0 54 40.5 84.5t120.5 53.5l107 30l2 -42l-81 -29q-35 -13 -55.5 -23t-32.5 -24.5t-12 -35.5q0 -30 19.5 -47.5t48.5 -17.5q33 0 60.5 22.5t48.5 55.5v181q0 55 -27 82t-76 27q-33 0 -67.5 -11.5t-71.5 -35.5l-19 25q40 40 88 63.5
t98 23.5q48 0 84 -19.5t56.5 -58.5t20.5 -96v-207q0 -26 3 -37t11.5 -15.5t28.5 -6.5v-25l-124 -25h-5v74h-6q-28 -41 -62.5 -61t-78.5 -20zM232 553q-53 0 -86 37.5t-35 100.5h39q3 -34 25 -54.5t57 -20.5q36 0 57.5 20.5t24.5 54.5h39q-1 -63 -34.5 -100.5t-86.5 -37.5z
" />
    <glyph glyph-name="acircumflex.ss02" horiz-adv-x="481" 
d="M164 -12q-50 0 -84.5 32.5t-34.5 82.5q0 54 40.5 84.5t120.5 53.5l107 30l2 -42l-81 -29q-35 -13 -55.5 -23t-32.5 -24.5t-12 -35.5q0 -30 19.5 -47.5t48.5 -17.5q33 0 60.5 22.5t48.5 55.5v181q0 55 -27 82t-76 27q-33 0 -67.5 -11.5t-71.5 -35.5l-19 25q40 40 88 63.5
t98 23.5q48 0 84 -19.5t56.5 -58.5t20.5 -96v-207q0 -26 3 -37t11.5 -15.5t28.5 -6.5v-25l-124 -25h-5v74h-6q-28 -41 -62.5 -61t-78.5 -20zM90 551l115 140h54l114 -140h-49l-92 69l-95 -69h-47z" />
    <glyph glyph-name="adieresis.ss02" horiz-adv-x="481" 
d="M164 -12q-50 0 -84.5 32.5t-34.5 82.5q0 54 40.5 84.5t120.5 53.5l107 30l2 -42l-81 -29q-35 -13 -55.5 -23t-32.5 -24.5t-12 -35.5q0 -30 19.5 -47.5t48.5 -17.5q33 0 60.5 22.5t48.5 55.5v181q0 55 -27 82t-76 27q-33 0 -67.5 -11.5t-71.5 -35.5l-19 25q40 40 88 63.5
t98 23.5q48 0 84 -19.5t56.5 -58.5t20.5 -96v-207q0 -26 3 -37t11.5 -15.5t28.5 -6.5v-25l-124 -25h-5v74h-6q-28 -41 -62.5 -61t-78.5 -20zM139 564q-26 0 -43 17.5t-17 43.5q0 25 17.5 42.5t42.5 17.5q24 0 42 -17.5t18 -42.5q0 -26 -17.5 -43.5t-42.5 -17.5zM323 564
q-26 0 -43 17.5t-17 43.5q0 25 17.5 42.5t42.5 17.5q24 0 42 -17.5t18 -42.5q0 -26 -17.5 -43.5t-42.5 -17.5z" />
    <glyph glyph-name="uni0227.ss02" horiz-adv-x="481" 
d="M164 -12q-50 0 -84.5 32.5t-34.5 82.5q0 54 40.5 84.5t120.5 53.5l107 30l2 -42l-81 -29q-35 -13 -55.5 -23t-32.5 -24.5t-12 -35.5q0 -30 19.5 -47.5t48.5 -17.5q33 0 60.5 22.5t48.5 55.5v181q0 55 -27 82t-76 27q-33 0 -67.5 -11.5t-71.5 -35.5l-19 25q40 40 88 63.5
t98 23.5q48 0 84 -19.5t56.5 -58.5t20.5 -96v-207q0 -26 3 -37t11.5 -15.5t28.5 -6.5v-25l-124 -25h-5v74h-6q-28 -41 -62.5 -61t-78.5 -20zM232 562q-26 0 -44 18t-18 45q0 26 18 44t44 18q25 0 43 -18.5t18 -43.5q0 -27 -17.5 -45t-43.5 -18z" />
    <glyph glyph-name="agrave.ss02" horiz-adv-x="481" 
d="M164 -12q-50 0 -84.5 32.5t-34.5 82.5q0 54 40.5 84.5t120.5 53.5l107 30l2 -42l-81 -29q-35 -13 -55.5 -23t-32.5 -24.5t-12 -35.5q0 -30 19.5 -47.5t48.5 -17.5q33 0 60.5 22.5t48.5 55.5v181q0 55 -27 82t-76 27q-33 0 -67.5 -11.5t-71.5 -35.5l-19 25q40 40 88 63.5
t98 23.5q48 0 84 -19.5t56.5 -58.5t20.5 -96v-207q0 -26 3 -37t11.5 -15.5t28.5 -6.5v-25l-124 -25h-5v74h-6q-28 -41 -62.5 -61t-78.5 -20zM276 551h-41l-125 137v3h114z" />
    <glyph glyph-name="amacron.ss02" horiz-adv-x="481" 
d="M164 -12q-50 0 -84.5 32.5t-34.5 82.5q0 54 40.5 84.5t120.5 53.5l107 30l2 -42l-81 -29q-35 -13 -55.5 -23t-32.5 -24.5t-12 -35.5q0 -30 19.5 -47.5t48.5 -17.5q33 0 60.5 22.5t48.5 55.5v181q0 55 -27 82t-76 27q-33 0 -67.5 -11.5t-71.5 -35.5l-19 25q40 40 88 63.5
t98 23.5q48 0 84 -19.5t56.5 -58.5t20.5 -96v-207q0 -26 3 -37t11.5 -15.5t28.5 -6.5v-25l-124 -25h-5v74h-6q-28 -41 -62.5 -61t-78.5 -20zM381 583v48h-296v-48h296z" />
    <glyph glyph-name="aogonek.ss02" horiz-adv-x="481" 
d="M311 -202q-40 0 -66.5 24t-26.5 64q0 47 39 82t95 50l-1 -10l-40 -13v74h-6q-28 -41 -62 -61t-78 -20q-51 0 -85.5 33t-34.5 82q0 54 41 85t120 53l107 30l2 -42l-81 -29q-51 -18 -75.5 -35t-24.5 -47q0 -31 19 -48.5t49 -17.5q33 0 60.5 22.5t48.5 55.5v181
q0 56 -27 82.5t-77 26.5q-32 0 -67 -12t-71 -35l-19 25q38 39 87 63t97 24q49 0 85.5 -19t57 -58t20.5 -97v-207q0 -26 3 -37t11.5 -15.5t28.5 -6.5v-25l-49 -12q-59 -15 -87 -45.5t-28 -65.5q0 -25 14.5 -40.5t38.5 -15.5q29 0 50 18l17 -19q-17 -22 -37.5 -32t-47.5 -10z
" />
    <glyph glyph-name="aring.ss02" horiz-adv-x="481" 
d="M164 -12q-50 0 -84.5 32.5t-34.5 82.5q0 54 40.5 84.5t120.5 53.5l107 30l2 -42l-81 -29q-35 -13 -55.5 -23t-32.5 -24.5t-12 -35.5q0 -30 19.5 -47.5t48.5 -17.5q33 0 60.5 22.5t48.5 55.5v181q0 55 -27 82t-76 27q-33 0 -67.5 -11.5t-71.5 -35.5l-19 25q40 40 88 63.5
t98 23.5q48 0 84 -19.5t56.5 -58.5t20.5 -96v-207q0 -26 3 -37t11.5 -15.5t28.5 -6.5v-25l-124 -25h-5v74h-6q-28 -41 -62.5 -61t-78.5 -20zM232 530q-40 0 -68 27.5t-28 66.5t28 66.5t68 27.5q39 0 67 -27.5t28 -66.5t-28 -66.5t-67 -27.5zM232 570q23 0 37.5 15t14.5 39
t-14.5 39t-37.5 15t-38 -15t-15 -39t15 -39t38 -15z" />
    <glyph glyph-name="atilde.ss02" horiz-adv-x="481" 
d="M164 -12q-50 0 -84.5 32.5t-34.5 82.5q0 54 40.5 84.5t120.5 53.5l107 30l2 -42l-81 -29q-35 -13 -55.5 -23t-32.5 -24.5t-12 -35.5q0 -30 19.5 -47.5t48.5 -17.5q33 0 60.5 22.5t48.5 55.5v181q0 55 -27 82t-76 27q-33 0 -67.5 -11.5t-71.5 -35.5l-19 25q40 40 88 63.5
t98 23.5q48 0 84 -19.5t56.5 -58.5t20.5 -96v-207q0 -26 3 -37t11.5 -15.5t28.5 -6.5v-25l-124 -25h-5v74h-6q-28 -41 -62.5 -61t-78.5 -20zM297 555q-20 0 -36.5 7.5t-36.5 21.5l-17 13q-15 11 -25.5 15t-22.5 4q-20 0 -31 -13.5t-17 -43.5h-37q4 59 30 88t63 29
q21 0 37 -7t36 -22l17 -12q16 -11 25.5 -15t22.5 -4q19 0 30 13.5t18 43.5h37q-4 -59 -30.5 -88.5t-62.5 -29.5z" />
    <glyph glyph-name="g.ss03" horiz-adv-x="554" 
d="M248 -206q-57 0 -106.5 22t-89.5 58l20 29q31 -21 67.5 -33t78.5 -12q80 0 126 43t46 132v61h-6q-27 -40 -64.5 -61.5t-86.5 -21.5q-51 0 -94.5 28t-69.5 79t-26 116q0 71 30 128.5t81.5 90t112.5 32.5q37 0 72.5 -14t61.5 -40h6l43 42h26v-439q0 -78 -30.5 -132.5
t-82.5 -81t-115 -26.5zM264 78q45 0 76.5 26t49.5 64v123q0 45 -14.5 78t-41 51t-62.5 18q-40 0 -72 -23.5t-50.5 -65.5t-18.5 -97q0 -74 36.5 -124t96.5 -50z" />
    <glyph glyph-name="gbreve.ss03" horiz-adv-x="554" 
d="M248 -206q-57 0 -106.5 22t-89.5 58l20 29q31 -21 67.5 -33t78.5 -12q80 0 126 43t46 132v61h-6q-27 -40 -64.5 -61.5t-86.5 -21.5q-51 0 -94.5 28t-69.5 79t-26 116q0 71 30 128.5t81.5 90t112.5 32.5q37 0 72.5 -14t61.5 -40h6l43 42h26v-439q0 -78 -30.5 -132.5
t-82.5 -81t-115 -26.5zM264 78q45 0 76.5 26t49.5 64v123q0 45 -14.5 78t-41 51t-62.5 18q-40 0 -72 -23.5t-50.5 -65.5t-18.5 -97q0 -74 36.5 -124t96.5 -50zM281 553q-53 0 -86 37.5t-35 100.5h39q3 -34 25 -54.5t57 -20.5q36 0 57.5 20.5t24.5 54.5h39
q-1 -63 -34.5 -100.5t-86.5 -37.5z" />
    <glyph glyph-name="gcircumflex.ss03" horiz-adv-x="554" 
d="M248 -206q-57 0 -106.5 22t-89.5 58l20 29q31 -21 67.5 -33t78.5 -12q80 0 126 43t46 132v61h-6q-27 -40 -64.5 -61.5t-86.5 -21.5q-51 0 -94.5 28t-69.5 79t-26 116q0 71 30 128.5t81.5 90t112.5 32.5q37 0 72.5 -14t61.5 -40h6l43 42h26v-439q0 -78 -30.5 -132.5
t-82.5 -81t-115 -26.5zM264 78q45 0 76.5 26t49.5 64v123q0 45 -14.5 78t-41 51t-62.5 18q-40 0 -72 -23.5t-50.5 -65.5t-18.5 -97q0 -74 36.5 -124t96.5 -50zM139 551l115 140h54l114 -140h-49l-92 69l-95 -69h-47z" />
    <glyph glyph-name="uni0123.ss03" horiz-adv-x="554" 
d="M248 -206q-57 0 -106.5 22t-89.5 58l20 29q31 -21 67.5 -33t78.5 -12q80 0 126 43t46 132v61h-6q-27 -40 -64.5 -61.5t-86.5 -21.5q-51 0 -94.5 28t-69.5 79t-26 116q0 71 30 128.5t81.5 90t112.5 32.5q37 0 72.5 -14t61.5 -40h6l43 42h26v-439q0 -78 -30.5 -132.5
t-82.5 -81t-115 -26.5zM264 78q45 0 76.5 26t49.5 64v123q0 45 -14.5 78t-41 51t-62.5 18q-40 0 -72 -23.5t-50.5 -65.5t-18.5 -97q0 -74 36.5 -124t96.5 -50zM337 738l-75 -126l-17 10q16 11 35 11q23 0 39 -14.5t16 -37.5t-15 -38t-37 -15q-25 0 -41 17t-16 43
q0 14 5 27.5t14 29.5l52 93h40z" />
    <glyph glyph-name="gdotaccent.ss03" horiz-adv-x="554" 
d="M248 -206q-57 0 -106.5 22t-89.5 58l20 29q31 -21 67.5 -33t78.5 -12q80 0 126 43t46 132v61h-6q-27 -40 -64.5 -61.5t-86.5 -21.5q-51 0 -94.5 28t-69.5 79t-26 116q0 71 30 128.5t81.5 90t112.5 32.5q37 0 72.5 -14t61.5 -40h6l43 42h26v-439q0 -78 -30.5 -132.5
t-82.5 -81t-115 -26.5zM264 78q45 0 76.5 26t49.5 64v123q0 45 -14.5 78t-41 51t-62.5 18q-40 0 -72 -23.5t-50.5 -65.5t-18.5 -97q0 -74 36.5 -124t96.5 -50zM281 562q-26 0 -44 18t-18 45q0 26 18 44t44 18q25 0 43 -18.5t18 -43.5q0 -27 -17.5 -45t-43.5 -18z" />
    <glyph glyph-name="g.ss04" horiz-adv-x="526" 
d="M234 -214q-98 0 -154.5 34t-56.5 87q0 30 18.5 55.5t57.5 47.5v24l72 -28q-33 -13 -51 -34.5t-18 -48.5q0 -41 35 -66t101 -25q46 0 86 13.5t64 37t24 53.5q0 34 -25 50.5t-78 16.5h-152q-51 0 -80.5 26t-29.5 65q0 29 19.5 56.5t59.5 48.5v19l60 -32q-30 -11 -48 -27.5
t-18 -37.5q0 -18 15 -29.5t45 -11.5h149q79 0 124 -30t45 -88q0 -49 -33.5 -89.5t-94 -63.5t-136.5 -23zM249 168q-55 0 -97.5 20t-66 56t-23.5 82t24 82.5t66.5 56.5t96.5 20q42 0 81 -14h55v-58q22 -13 35.5 -35t13.5 -53q0 -45 -23.5 -80.5t-65.5 -56t-96 -20.5zM248 211
q29 0 50.5 14t34 40t12.5 61q0 54 -27 85t-70 31q-28 0 -50 -14t-34 -40t-12 -62q0 -53 26.5 -84t69.5 -31zM333 419l-31 54h200v-54h-169z" />
    <glyph glyph-name="gbreve.ss04" horiz-adv-x="526" 
d="M234 -214q-98 0 -154.5 34t-56.5 87q0 30 18.5 55.5t57.5 47.5v24l72 -28q-33 -13 -51 -34.5t-18 -48.5q0 -41 35 -66t101 -25q46 0 86 13.5t64 37t24 53.5q0 34 -25 50.5t-78 16.5h-152q-51 0 -80.5 26t-29.5 65q0 29 19.5 56.5t59.5 48.5v19l60 -32q-30 -11 -48 -27.5
t-18 -37.5q0 -18 15 -29.5t45 -11.5h149q79 0 124 -30t45 -88q0 -49 -33.5 -89.5t-94 -63.5t-136.5 -23zM249 168q-55 0 -97.5 20t-66 56t-23.5 82t24 82.5t66.5 56.5t96.5 20q42 0 81 -14h55v-58q22 -13 35.5 -35t13.5 -53q0 -45 -23.5 -80.5t-65.5 -56t-96 -20.5zM248 211
q29 0 50.5 14t34 40t12.5 61q0 54 -27 85t-70 31q-28 0 -50 -14t-34 -40t-12 -62q0 -53 26.5 -84t69.5 -31zM333 419l-31 54h200v-54h-169zM254 553q-53 0 -86 37.5t-35 100.5h39q3 -34 25 -54.5t57 -20.5q36 0 57.5 20.5t24.5 54.5h39q-1 -63 -34.5 -100.5t-86.5 -37.5z
" />
    <glyph glyph-name="gcircumflex.ss04" horiz-adv-x="526" 
d="M234 -214q-98 0 -154.5 34t-56.5 87q0 30 18.5 55.5t57.5 47.5v24l72 -28q-33 -13 -51 -34.5t-18 -48.5q0 -41 35 -66t101 -25q46 0 86 13.5t64 37t24 53.5q0 34 -25 50.5t-78 16.5h-152q-51 0 -80.5 26t-29.5 65q0 29 19.5 56.5t59.5 48.5v19l60 -32q-30 -11 -48 -27.5
t-18 -37.5q0 -18 15 -29.5t45 -11.5h149q79 0 124 -30t45 -88q0 -49 -33.5 -89.5t-94 -63.5t-136.5 -23zM249 168q-55 0 -97.5 20t-66 56t-23.5 82t24 82.5t66.5 56.5t96.5 20q42 0 81 -14h55v-58q22 -13 35.5 -35t13.5 -53q0 -45 -23.5 -80.5t-65.5 -56t-96 -20.5zM248 211
q29 0 50.5 14t34 40t12.5 61q0 54 -27 85t-70 31q-28 0 -50 -14t-34 -40t-12 -62q0 -53 26.5 -84t69.5 -31zM333 419l-31 54h200v-54h-169zM112 551l115 140h54l114 -140h-49l-92 69l-95 -69h-47z" />
    <glyph glyph-name="uni0123.ss04" horiz-adv-x="526" 
d="M234 -214q-98 0 -154.5 34t-56.5 87q0 30 18.5 55.5t57.5 47.5v24l72 -28q-33 -13 -51 -34.5t-18 -48.5q0 -41 35 -66t101 -25q46 0 86 13.5t64 37t24 53.5q0 34 -25 50.5t-78 16.5h-152q-51 0 -80.5 26t-29.5 65q0 29 19.5 56.5t59.5 48.5v19l60 -32q-30 -11 -48 -27.5
t-18 -37.5q0 -18 15 -29.5t45 -11.5h149q79 0 124 -30t45 -88q0 -49 -33.5 -89.5t-94 -63.5t-136.5 -23zM249 168q-55 0 -97.5 20t-66 56t-23.5 82t24 82.5t66.5 56.5t96.5 20q42 0 81 -14h55v-58q22 -13 35.5 -35t13.5 -53q0 -45 -23.5 -80.5t-65.5 -56t-96 -20.5zM248 211
q29 0 50.5 14t34 40t12.5 61q0 54 -27 85t-70 31q-28 0 -50 -14t-34 -40t-12 -62q0 -53 26.5 -84t69.5 -31zM333 419l-31 54h200v-54h-169zM310 738l-75 -126l-17 10q16 11 35 11q23 0 39 -14.5t16 -37.5t-15 -38t-37 -15q-25 0 -41 17t-16 43q0 14 5 27.5t14 29.5l52 93h40
z" />
    <glyph glyph-name="gdotaccent.ss04" horiz-adv-x="526" 
d="M234 -214q-98 0 -154.5 34t-56.5 87q0 30 18.5 55.5t57.5 47.5v24l72 -28q-33 -13 -51 -34.5t-18 -48.5q0 -41 35 -66t101 -25q46 0 86 13.5t64 37t24 53.5q0 34 -25 50.5t-78 16.5h-152q-51 0 -80.5 26t-29.5 65q0 29 19.5 56.5t59.5 48.5v19l60 -32q-30 -11 -48 -27.5
t-18 -37.5q0 -18 15 -29.5t45 -11.5h149q79 0 124 -30t45 -88q0 -49 -33.5 -89.5t-94 -63.5t-136.5 -23zM249 168q-55 0 -97.5 20t-66 56t-23.5 82t24 82.5t66.5 56.5t96.5 20q42 0 81 -14h55v-58q22 -13 35.5 -35t13.5 -53q0 -45 -23.5 -80.5t-65.5 -56t-96 -20.5zM248 211
q29 0 50.5 14t34 40t12.5 61q0 54 -27 85t-70 31q-28 0 -50 -14t-34 -40t-12 -62q0 -53 26.5 -84t69.5 -31zM333 419l-31 54h200v-54h-169zM254 562q-26 0 -44 18t-18 45q0 26 18 44t44 18q25 0 43 -18.5t18 -43.5q0 -27 -17.5 -45t-43.5 -18z" />
    <glyph glyph-name="dcaron.ss06" horiz-adv-x="567" 
d="M238 -12q-53 0 -98 28.5t-71 82t-26 124.5q0 74 30 134t82 94t116 34q34 0 64 -10t54 -30h6v164q0 24 -4.5 35.5t-14.5 16t-31 6.5v25l130 23h6v-611q0 -26 3 -37t11.5 -15.5t28.5 -6.5v-25l-124 -25h-5v76h-6q-28 -41 -65.5 -62t-85.5 -21zM271 55q43 0 75 27t49 63v142
q0 46 -14 80t-40.5 52.5t-64.5 18.5q-42 0 -75 -24.5t-51 -69t-18 -100.5q0 -89 38.5 -139t100.5 -50zM527 521l36 189h87v-3l-97 -186h-26z" />
    <glyph glyph-name="uni0123.ss06" horiz-adv-x="526" 
d="M234 -214q-98 0 -154.5 34t-56.5 87q0 30 18.5 55.5t57.5 47.5v24l72 -28q-33 -13 -51 -34.5t-18 -48.5q0 -41 35 -66t101 -25q46 0 86 13.5t64 37t24 53.5q0 34 -25 50.5t-78 16.5h-152q-51 0 -80.5 26t-29.5 65q0 29 19.5 56.5t59.5 48.5v19l60 -32q-30 -11 -48 -27.5
t-18 -37.5q0 -18 15 -29.5t45 -11.5h149q79 0 124 -30t45 -88q0 -49 -33.5 -89.5t-94 -63.5t-136.5 -23zM249 168q-55 0 -97.5 20t-66 56t-23.5 82t24 82.5t66.5 56.5t96.5 20q33 0 68.5 -11.5t65.5 -35.5v-18q22 -13 36.5 -38t14.5 -57q0 -45 -23.5 -80.5t-65.5 -56
t-96 -20.5zM248 211q29 0 50.5 14t34 40t12.5 61q0 54 -27 85t-70 31q-28 0 -50 -14t-34 -40t-12 -62q0 -53 26.5 -84t69.5 -31zM333 426l-31 47l195 37h5v-84h-169zM338 743l-38 -199h-92v3l103 196h27z" />
    <glyph glyph-name="uni0137.ss06" horiz-adv-x="531" 
d="M46 25q20 4 28.5 10.5t11.5 21t3 45.5v507q0 24 -4.5 35.5t-14.5 16t-31 6.5v25l130 23h6v-613q0 -31 3 -45.5t12 -21t28 -10.5v-25h-172v25zM409 0l-208 242l64 53l263 -293v-2h-119zM161 178l6 74h14l145 137q28 27 32 40.5t-16 18.5v25h173v-25q-42 -7 -70 -22.5
t-66 -49.5zM201 -255l38 199h92v-3l-103 -196h-27z" />
    <glyph glyph-name="lcaron.ss06" horiz-adv-x="263" 
d="M46 25q20 4 28.5 10.5t11.5 21t3 45.5v507q0 24 -4.5 35.5t-14.5 16t-31 6.5v25l130 23h6v-613q0 -31 3 -45.5t12 -21t28 -10.5v-25h-172v25zM221 521l36 189h87v-3l-97 -186h-26z" />
    <glyph glyph-name="uni013C.ss06" horiz-adv-x="263" 
d="M46 25q20 4 28.5 10.5t11.5 21t3 45.5v507q0 24 -4.5 35.5t-14.5 16t-31 6.5v25l130 23h6v-613q0 -31 3 -45.5t12 -21t28 -10.5v-25h-172v25zM50 -255l38 199h92v-3l-103 -196h-27z" />
    <glyph glyph-name="uni0146.ss06" horiz-adv-x="563" 
d="M95 372q0 24 -4.5 35.5t-14.5 16t-31 6.5v25l130 23h6v-79h6q31 43 65 64.5t79 21.5q43 0 77 -19.5t53.5 -59t19.5 -96.5v-207q0 -32 3 -46.5t11.5 -21t28.5 -10.5v-25h-172v25q19 4 28 10.5t12 21.5t3 46v206q0 36 -12 60.5t-32 37t-46 12.5q-41 0 -71.5 -25.5
t-52.5 -63.5v-227q0 -31 3.5 -46t12.5 -21.5t27 -10.5v-25h-172v25q20 4 28.5 10.5t11.5 21t3 46.5v269zM209 -255l38 199h92v-3l-103 -196h-27z" />
    <glyph glyph-name="uni0157.ss06" horiz-adv-x="379" 
d="M95 372q0 24 -4.5 35.5t-14.5 16t-31 6.5v25l130 23h6v-136h6q21 75 54 109t82 34q19 0 36 -6v-88q-17 6 -38 6q-49 0 -83.5 -35t-56.5 -100v-165q0 -31 3 -44.5t12.5 -19t32.5 -8.5v-25h-177v25q20 3 28.5 9t11.5 19t3 44v275zM57 -255l38 199h92v-3l-103 -196h-27z" />
    <glyph glyph-name="uni0219.ss06" horiz-adv-x="410" 
d="M193 -12q-39 0 -78.5 11.5t-68.5 32.5v104h26q21 -50 52 -74.5t75 -24.5q38 0 65 18.5t27 52.5q0 24 -15.5 39t-55.5 33l-73 33q-46 21 -68.5 53t-22.5 73t21.5 74.5t60 52.5t86.5 19q35 0 69 -8.5t61 -22.5v-101h-26q-14 41 -40.5 61.5t-69.5 20.5q-39 0 -64.5 -18.5
t-25.5 -49.5q0 -24 16 -41t53 -33l75 -32q46 -20 69 -51.5t23 -74.5t-22.5 -76.5t-62 -52t-86.5 -18.5zM129 -255l38 199h92v-3l-103 -196h-27z" />
    <glyph glyph-name="uni0123.ss03.ss06" horiz-adv-x="554" 
d="M248 -206q-57 0 -106.5 22t-89.5 58l20 29q31 -21 67.5 -33t78.5 -12q80 0 126 43t46 132v61h-6q-27 -40 -64.5 -61.5t-86.5 -21.5q-51 0 -94.5 28t-69.5 79t-26 116q0 71 30 128.5t81.5 90t112.5 32.5q37 0 72.5 -14t61.5 -40h6l43 42h26v-439q0 -78 -30.5 -132.5
t-82.5 -81t-115 -26.5zM264 78q45 0 76.5 26t49.5 64v123q0 45 -14.5 78t-41 51t-62.5 18q-40 0 -72 -23.5t-50.5 -65.5t-18.5 -97q0 -74 36.5 -124t96.5 -50zM365 743l-38 -199h-92v3l103 196h27z" />
    <glyph glyph-name="tcaron.ss06" horiz-adv-x="353" 
d="M224 -12q-35 0 -61.5 13.5t-41.5 41.5t-15 71v305h-96v40q51 2 75 12t34 37t13 85h60v-120h138v-54h-138v-303q0 -38 15 -54.5t47 -16.5q38 0 71 20l18 -26q-56 -51 -119 -51zM236 529l36 180h87v-2l-97 -178h-26z" />
    <glyph glyph-name="uni021B.ss06" horiz-adv-x="353" 
d="M224 -12q-35 0 -61.5 13.5t-41.5 41.5t-15 71v305h-96v40q51 2 75 12t34 37t13 85h60v-120h138v-54h-138v-303q0 -38 15 -54.5t47 -16.5q38 0 71 20l18 -26q-56 -51 -119 -51zM107 -255l38 199h92v-3l-103 -196h-27z" />
    <glyph glyph-name="c.ss07" horiz-adv-x="473" 
d="M275 -12q-67 0 -120 31.5t-83 87t-30 124.5q0 71 31 129t86 91.5t124 33.5q73 0 129 -29v-108h-26q-10 40 -38 64t-66 24q-46 0 -80 -24.5t-52.5 -66.5t-18.5 -93q0 -60 22 -103t60.5 -65.5t87.5 -22.5q41 0 73 12.5t62 35.5l22 -22q-40 -48 -84.5 -73.5t-98.5 -25.5z
" />
    <glyph glyph-name="cacute.ss07" horiz-adv-x="473" 
d="M275 -12q-67 0 -120 31.5t-83 87t-30 124.5q0 71 31 129t86 91.5t124 33.5q73 0 129 -29v-108h-26q-10 40 -38 64t-66 24q-46 0 -80 -24.5t-52.5 -66.5t-18.5 -93q0 -60 22 -103t60.5 -65.5t87.5 -22.5q41 0 73 12.5t62 35.5l22 -22q-40 -48 -84.5 -73.5t-98.5 -25.5z
M223 551l51 140h115v-3l-127 -137h-39z" />
    <glyph glyph-name="ccaron.ss07" horiz-adv-x="473" 
d="M275 -12q-67 0 -120 31.5t-83 87t-30 124.5q0 71 31 129t86 91.5t124 33.5q73 0 129 -29v-108h-26q-10 40 -38 64t-66 24q-46 0 -80 -24.5t-52.5 -66.5t-18.5 -93q0 -60 22 -103t60.5 -65.5t87.5 -22.5q41 0 73 12.5t62 35.5l22 -22q-40 -48 -84.5 -73.5t-98.5 -25.5z
M408 691l-115 -140h-54l-114 140h49l92 -69l95 69h47z" />
    <glyph glyph-name="ccedilla.ss07" horiz-adv-x="473" 
d="M275 -12q-67 0 -120 31.5t-83 87t-30 124.5q0 71 31 129t86 91.5t124 33.5q73 0 129 -29v-108h-26q-10 40 -38 64t-66 24q-46 0 -80 -24.5t-52.5 -66.5t-18.5 -93q0 -60 22 -103t60.5 -65.5t87.5 -22.5q41 0 73 12.5t62 35.5l22 -22q-40 -48 -84.5 -73.5t-98.5 -25.5z
M255 -203q-31 0 -56 12.5t-49 39.5l17 19q33 -30 71 -30q27 0 42.5 12t15.5 32q0 17 -12.5 27t-31.5 10q-21 0 -38 -12l-3 2l37 99l28 -8l-19 -52l2 -1q11 3 25 3q29 0 50.5 -18t21.5 -50q0 -36 -28.5 -60.5t-72.5 -24.5z" />
    <glyph glyph-name="ccircumflex.ss07" horiz-adv-x="473" 
d="M275 -12q-67 0 -120 31.5t-83 87t-30 124.5q0 71 31 129t86 91.5t124 33.5q73 0 129 -29v-108h-26q-10 40 -38 64t-66 24q-46 0 -80 -24.5t-52.5 -66.5t-18.5 -93q0 -60 22 -103t60.5 -65.5t87.5 -22.5q41 0 73 12.5t62 35.5l22 -22q-40 -48 -84.5 -73.5t-98.5 -25.5z
M125 551l115 140h54l114 -140h-49l-92 69l-95 -69h-47z" />
    <glyph glyph-name="cdotaccent.ss07" horiz-adv-x="473" 
d="M275 -12q-67 0 -120 31.5t-83 87t-30 124.5q0 71 31 129t86 91.5t124 33.5q73 0 129 -29v-108h-26q-10 40 -38 64t-66 24q-46 0 -80 -24.5t-52.5 -66.5t-18.5 -93q0 -60 22 -103t60.5 -65.5t87.5 -22.5q41 0 73 12.5t62 35.5l22 -22q-40 -48 -84.5 -73.5t-98.5 -25.5z
M267 562q-26 0 -44 18t-18 45q0 26 18 44t44 18q25 0 43 -18.5t18 -43.5q0 -27 -17.5 -45t-43.5 -18z" />
    <glyph glyph-name="f.ss07" horiz-adv-x="359" 
d="M72 25q21 4 30 9t12 18.5t3 44.5v322h-100v54h100v67q0 56 22 97t62.5 63t95.5 22q46 0 87 -13v-97h-24q-7 27 -28.5 43.5t-50.5 16.5q-36 0 -57 -24t-21 -73v-102h127v-54h-127v-322q0 -31 3 -44t13 -18.5t34 -9.5v-25h-181v25z" />
    <glyph glyph-name="g.ss07" horiz-adv-x="526" 
d="M234 -214q-98 0 -154.5 34t-56.5 87q0 30 18.5 55.5t57.5 47.5v24l72 -28q-33 -13 -51 -34.5t-18 -48.5q0 -41 35 -66t101 -25q46 0 86 13.5t64 37t24 53.5q0 34 -25 50.5t-78 16.5h-152q-51 0 -80.5 26t-29.5 65q0 29 19.5 56.5t59.5 48.5v19l60 -32q-30 -11 -48 -27.5
t-18 -37.5q0 -18 15 -29.5t45 -11.5h149q79 0 124 -30t45 -88q0 -49 -33.5 -89.5t-94 -63.5t-136.5 -23zM249 168q-55 0 -97.5 20t-66 56t-23.5 82t24 82.5t66.5 56.5t96.5 20q33 0 68.5 -11.5t65.5 -35.5v-18q22 -13 36.5 -38t14.5 -57q0 -45 -23.5 -80.5t-65.5 -56
t-96 -20.5zM248 211q29 0 50.5 14t34 40t12.5 61q0 54 -27 85t-70 31q-28 0 -50 -14t-34 -40t-12 -62q0 -53 26.5 -84t69.5 -31zM333 426l-31 47l195 37h5v-84h-169z" />
    <glyph glyph-name="gbreve.ss07" horiz-adv-x="526" 
d="M234 -214q-98 0 -154.5 34t-56.5 87q0 30 18.5 55.5t57.5 47.5v24l72 -28q-33 -13 -51 -34.5t-18 -48.5q0 -41 35 -66t101 -25q46 0 86 13.5t64 37t24 53.5q0 34 -25 50.5t-78 16.5h-152q-51 0 -80.5 26t-29.5 65q0 29 19.5 56.5t59.5 48.5v19l60 -32q-30 -11 -48 -27.5
t-18 -37.5q0 -18 15 -29.5t45 -11.5h149q79 0 124 -30t45 -88q0 -49 -33.5 -89.5t-94 -63.5t-136.5 -23zM249 168q-55 0 -97.5 20t-66 56t-23.5 82t24 82.5t66.5 56.5t96.5 20q33 0 68.5 -11.5t65.5 -35.5v-18q22 -13 36.5 -38t14.5 -57q0 -45 -23.5 -80.5t-65.5 -56
t-96 -20.5zM248 211q29 0 50.5 14t34 40t12.5 61q0 54 -27 85t-70 31q-28 0 -50 -14t-34 -40t-12 -62q0 -53 26.5 -84t69.5 -31zM333 426l-31 47l195 37h5v-84h-169zM254 553q-53 0 -86 37.5t-35 100.5h39q3 -34 25 -54.5t57 -20.5q36 0 57.5 20.5t24.5 54.5h39
q-1 -63 -34.5 -100.5t-86.5 -37.5z" />
    <glyph glyph-name="gcircumflex.ss07" horiz-adv-x="526" 
d="M234 -214q-98 0 -154.5 34t-56.5 87q0 30 18.5 55.5t57.5 47.5v24l72 -28q-33 -13 -51 -34.5t-18 -48.5q0 -41 35 -66t101 -25q46 0 86 13.5t64 37t24 53.5q0 34 -25 50.5t-78 16.5h-152q-51 0 -80.5 26t-29.5 65q0 29 19.5 56.5t59.5 48.5v19l60 -32q-30 -11 -48 -27.5
t-18 -37.5q0 -18 15 -29.5t45 -11.5h149q79 0 124 -30t45 -88q0 -49 -33.5 -89.5t-94 -63.5t-136.5 -23zM249 168q-55 0 -97.5 20t-66 56t-23.5 82t24 82.5t66.5 56.5t96.5 20q33 0 68.5 -11.5t65.5 -35.5v-18q22 -13 36.5 -38t14.5 -57q0 -45 -23.5 -80.5t-65.5 -56
t-96 -20.5zM248 211q29 0 50.5 14t34 40t12.5 61q0 54 -27 85t-70 31q-28 0 -50 -14t-34 -40t-12 -62q0 -53 26.5 -84t69.5 -31zM333 426l-31 47l195 37h5v-84h-169zM112 551l115 140h54l114 -140h-49l-92 69l-95 -69h-47z" />
    <glyph glyph-name="uni0123.ss07" horiz-adv-x="526" 
d="M234 -214q-98 0 -154.5 34t-56.5 87q0 30 18.5 55.5t57.5 47.5v24l72 -28q-33 -13 -51 -34.5t-18 -48.5q0 -41 35 -66t101 -25q46 0 86 13.5t64 37t24 53.5q0 34 -25 50.5t-78 16.5h-152q-51 0 -80.5 26t-29.5 65q0 29 19.5 56.5t59.5 48.5v19l60 -32q-30 -11 -48 -27.5
t-18 -37.5q0 -18 15 -29.5t45 -11.5h149q79 0 124 -30t45 -88q0 -49 -33.5 -89.5t-94 -63.5t-136.5 -23zM249 168q-55 0 -97.5 20t-66 56t-23.5 82t24 82.5t66.5 56.5t96.5 20q33 0 68.5 -11.5t65.5 -35.5v-18q22 -13 36.5 -38t14.5 -57q0 -45 -23.5 -80.5t-65.5 -56
t-96 -20.5zM248 211q29 0 50.5 14t34 40t12.5 61q0 54 -27 85t-70 31q-28 0 -50 -14t-34 -40t-12 -62q0 -53 26.5 -84t69.5 -31zM333 426l-31 47l195 37h5v-84h-169zM310 738l-75 -126l-17 10q16 11 35 11q23 0 39 -14.5t16 -37.5t-15 -38t-37 -15q-25 0 -41 17t-16 43
q0 14 5 27.5t14 29.5l52 93h40z" />
    <glyph glyph-name="gdotaccent.ss07" horiz-adv-x="526" 
d="M234 -214q-98 0 -154.5 34t-56.5 87q0 30 18.5 55.5t57.5 47.5v24l72 -28q-33 -13 -51 -34.5t-18 -48.5q0 -41 35 -66t101 -25q46 0 86 13.5t64 37t24 53.5q0 34 -25 50.5t-78 16.5h-152q-51 0 -80.5 26t-29.5 65q0 29 19.5 56.5t59.5 48.5v19l60 -32q-30 -11 -48 -27.5
t-18 -37.5q0 -18 15 -29.5t45 -11.5h149q79 0 124 -30t45 -88q0 -49 -33.5 -89.5t-94 -63.5t-136.5 -23zM249 168q-55 0 -97.5 20t-66 56t-23.5 82t24 82.5t66.5 56.5t96.5 20q33 0 68.5 -11.5t65.5 -35.5v-18q22 -13 36.5 -38t14.5 -57q0 -45 -23.5 -80.5t-65.5 -56
t-96 -20.5zM248 211q29 0 50.5 14t34 40t12.5 61q0 54 -27 85t-70 31q-28 0 -50 -14t-34 -40t-12 -62q0 -53 26.5 -84t69.5 -31zM333 426l-31 47l195 37h5v-84h-169zM254 562q-26 0 -44 18t-18 45q0 26 18 44t44 18q25 0 43 -18.5t18 -43.5q0 -27 -17.5 -45t-43.5 -18z" />
    <glyph glyph-name="r.ss07" horiz-adv-x="379" 
d="M95 372q0 24 -4.5 35.5t-14.5 16t-31 6.5v25l130 23h6v-136h6q21 75 54 109t82 34q19 0 36 -6v-88q-17 6 -38 6q-49 0 -83.5 -35t-56.5 -100v-165q0 -31 3 -44.5t12.5 -19t32.5 -8.5v-25h-177v25q20 3 28.5 9t11.5 19t3 44v275z" />
    <glyph glyph-name="racute.ss07" horiz-adv-x="379" 
d="M95 372q0 24 -4.5 35.5t-14.5 16t-31 6.5v25l130 23h6v-136h6q21 75 54 109t82 34q19 0 36 -6v-88q-17 6 -38 6q-49 0 -83.5 -35t-56.5 -100v-165q0 -31 3 -44.5t12.5 -19t32.5 -8.5v-25h-177v25q20 3 28.5 9t11.5 19t3 44v275zM177 551l51 140h115v-3l-127 -137h-39z
" />
    <glyph glyph-name="rcaron.ss07" horiz-adv-x="379" 
d="M95 372q0 24 -4.5 35.5t-14.5 16t-31 6.5v25l130 23h6v-136h6q21 75 54 109t82 34q19 0 36 -6v-88q-17 6 -38 6q-49 0 -83.5 -35t-56.5 -100v-165q0 -31 3 -44.5t12.5 -19t32.5 -8.5v-25h-177v25q20 3 28.5 9t11.5 19t3 44v275zM362 691l-115 -140h-54l-114 140h49
l92 -69l95 69h47z" />
    <glyph glyph-name="uni0157.ss07" horiz-adv-x="379" 
d="M95 372q0 24 -4.5 35.5t-14.5 16t-31 6.5v25l130 23h6v-136h6q21 75 54 109t82 34q19 0 36 -6v-88q-17 6 -38 6q-49 0 -83.5 -35t-56.5 -100v-165q0 -31 3 -44.5t12.5 -19t32.5 -8.5v-25h-177v25q20 3 28.5 9t11.5 19t3 44v275zM83 -255l75 126l17 -10q-16 -11 -35 -11
q-23 0 -39 14.5t-16 37.5t15 38t37 15q25 0 41 -17t16 -43q0 -14 -5 -27.5t-14 -29.5l-52 -93h-40z" />
    <glyph glyph-name="s.ss07" horiz-adv-x="410" 
d="M193 -12q-39 0 -78.5 11.5t-68.5 32.5v104h26q21 -50 52 -74.5t75 -24.5q38 0 65 18.5t27 52.5q0 24 -15.5 39t-55.5 33l-73 33q-46 21 -68.5 53t-22.5 73t21.5 74.5t60 52.5t86.5 19q35 0 69 -8.5t61 -22.5v-101h-26q-14 41 -40.5 61.5t-69.5 20.5q-39 0 -64.5 -18.5
t-25.5 -49.5q0 -24 16 -41t53 -33l75 -32q46 -20 69 -51.5t23 -74.5t-22.5 -76.5t-62 -52t-86.5 -18.5z" />
    <glyph glyph-name="sacute.ss07" horiz-adv-x="410" 
d="M193 -12q-39 0 -78.5 11.5t-68.5 32.5v104h26q21 -50 52 -74.5t75 -24.5q38 0 65 18.5t27 52.5q0 24 -15.5 39t-55.5 33l-73 33q-46 21 -68.5 53t-22.5 73t21.5 74.5t60 52.5t86.5 19q35 0 69 -8.5t61 -22.5v-101h-26q-14 41 -40.5 61.5t-69.5 20.5q-39 0 -64.5 -18.5
t-25.5 -49.5q0 -24 16 -41t53 -33l75 -32q46 -20 69 -51.5t23 -74.5t-22.5 -76.5t-62 -52t-86.5 -18.5zM163 551l51 140h115v-3l-127 -137h-39z" />
    <glyph glyph-name="scaron.ss07" horiz-adv-x="410" 
d="M193 -12q-39 0 -78.5 11.5t-68.5 32.5v104h26q21 -50 52 -74.5t75 -24.5q38 0 65 18.5t27 52.5q0 24 -15.5 39t-55.5 33l-73 33q-46 21 -68.5 53t-22.5 73t21.5 74.5t60 52.5t86.5 19q35 0 69 -8.5t61 -22.5v-101h-26q-14 41 -40.5 61.5t-69.5 20.5q-39 0 -64.5 -18.5
t-25.5 -49.5q0 -24 16 -41t53 -33l75 -32q46 -20 69 -51.5t23 -74.5t-22.5 -76.5t-62 -52t-86.5 -18.5zM348 691l-115 -140h-54l-114 140h49l92 -69l95 69h47z" />
    <glyph glyph-name="scedilla.ss07" horiz-adv-x="410" 
d="M193 -12q-39 0 -78.5 11.5t-68.5 32.5v104h26q21 -50 52 -74.5t75 -24.5q38 0 65 18.5t27 52.5q0 24 -15.5 39t-55.5 33l-73 33q-46 21 -68.5 53t-22.5 73t21.5 74.5t60 52.5t86.5 19q35 0 69 -8.5t61 -22.5v-101h-26q-14 41 -40.5 61.5t-69.5 20.5q-39 0 -64.5 -18.5
t-25.5 -49.5q0 -24 16 -41t53 -33l75 -32q46 -20 69 -51.5t23 -74.5t-22.5 -76.5t-62 -52t-86.5 -18.5zM205 -203q-31 0 -56 12.5t-49 39.5l17 19q33 -30 71 -30q27 0 42.5 12t15.5 32q0 17 -12.5 27t-31.5 10q-21 0 -38 -12l-3 2l37 99l28 -8l-19 -52l2 -1q11 3 25 3
q29 0 50.5 -18t21.5 -50q0 -36 -28.5 -60.5t-72.5 -24.5z" />
    <glyph glyph-name="scircumflex.ss07" horiz-adv-x="410" 
d="M193 -12q-39 0 -78.5 11.5t-68.5 32.5v104h26q21 -50 52 -74.5t75 -24.5q38 0 65 18.5t27 52.5q0 24 -15.5 39t-55.5 33l-73 33q-46 21 -68.5 53t-22.5 73t21.5 74.5t60 52.5t86.5 19q35 0 69 -8.5t61 -22.5v-101h-26q-14 41 -40.5 61.5t-69.5 20.5q-39 0 -64.5 -18.5
t-25.5 -49.5q0 -24 16 -41t53 -33l75 -32q46 -20 69 -51.5t23 -74.5t-22.5 -76.5t-62 -52t-86.5 -18.5zM65 551l115 140h54l114 -140h-49l-92 69l-95 -69h-47z" />
    <glyph glyph-name="uni0219.ss07" horiz-adv-x="410" 
d="M193 -12q-39 0 -78.5 11.5t-68.5 32.5v104h26q21 -50 52 -74.5t75 -24.5q38 0 65 18.5t27 52.5q0 24 -15.5 39t-55.5 33l-73 33q-46 21 -68.5 53t-22.5 73t21.5 74.5t60 52.5t86.5 19q35 0 69 -8.5t61 -22.5v-101h-26q-14 41 -40.5 61.5t-69.5 20.5q-39 0 -64.5 -18.5
t-25.5 -49.5q0 -24 16 -41t53 -33l75 -32q46 -20 69 -51.5t23 -74.5t-22.5 -76.5t-62 -52t-86.5 -18.5zM155 -255l75 126l17 -10q-16 -11 -35 -11q-23 0 -39 14.5t-16 37.5t15 38t37 15q25 0 41 -17t16 -43q0 -14 -5 -27.5t-14 -29.5l-52 -93h-40z" />
    <glyph glyph-name="uni0123.ss06.ss07" horiz-adv-x="526" 
d="M234 -214q-98 0 -154.5 34t-56.5 87q0 30 18.5 55.5t57.5 47.5v24l72 -28q-33 -13 -51 -34.5t-18 -48.5q0 -41 35 -66t101 -25q46 0 86 13.5t64 37t24 53.5q0 34 -25 50.5t-78 16.5h-152q-51 0 -80.5 26t-29.5 65q0 29 19.5 56.5t59.5 48.5v19l60 -32q-30 -11 -48 -27.5
t-18 -37.5q0 -18 15 -29.5t45 -11.5h149q79 0 124 -30t45 -88q0 -49 -33.5 -89.5t-94 -63.5t-136.5 -23zM249 168q-55 0 -97.5 20t-66 56t-23.5 82t24 82.5t66.5 56.5t96.5 20q33 0 68.5 -11.5t65.5 -35.5v-18q22 -13 36.5 -38t14.5 -57q0 -45 -23.5 -80.5t-65.5 -56
t-96 -20.5zM248 211q29 0 50.5 14t34 40t12.5 61q0 54 -27 85t-70 31q-28 0 -50 -14t-34 -40t-12 -62q0 -53 26.5 -84t69.5 -31zM333 426l-31 47l195 37h5v-84h-169zM338 743l-38 -199h-92v3l103 196h27z" />
    <glyph glyph-name="uni0157.ss06.ss07" horiz-adv-x="379" 
d="M95 372q0 24 -4.5 35.5t-14.5 16t-31 6.5v25l130 23h6v-136h6q21 75 54 109t82 34q19 0 36 -6v-88q-17 6 -38 6q-49 0 -83.5 -35t-56.5 -100v-165q0 -31 3 -44.5t12.5 -19t32.5 -8.5v-25h-177v25q20 3 28.5 9t11.5 19t3 44v275zM57 -255l38 199h92v-3l-103 -196h-27z" />
    <glyph glyph-name="uni0219.ss06.ss07" horiz-adv-x="410" 
d="M193 -12q-39 0 -78.5 11.5t-68.5 32.5v104h26q21 -50 52 -74.5t75 -24.5q38 0 65 18.5t27 52.5q0 24 -15.5 39t-55.5 33l-73 33q-46 21 -68.5 53t-22.5 73t21.5 74.5t60 52.5t86.5 19q35 0 69 -8.5t61 -22.5v-101h-26q-14 41 -40.5 61.5t-69.5 20.5q-39 0 -64.5 -18.5
t-25.5 -49.5q0 -24 16 -41t53 -33l75 -32q46 -20 69 -51.5t23 -74.5t-22.5 -76.5t-62 -52t-86.5 -18.5zM129 -255l38 199h92v-3l-103 -196h-27z" />
    <glyph glyph-name="y.ss07" horiz-adv-x="506" 
d="M89 -214q-18 0 -35 4t-30 11v80q32 -13 68 -13q44 0 77 22t53 75l151 393q11 29 14 44.5t-3.5 27t-28.5 18.5v25h146v-25q-32 -12 -48.5 -33t-32.5 -63l-164 -426q-30 -78 -73 -109t-94 -31zM82 355q-18 43 -33.5 62.5t-44.5 30.5v25h190v-25q-24 -7 -31.5 -17.5t-4 -26
t15.5 -46.5l99 -245h23l-58 -128z" />
    <glyph glyph-name="yacute.ss07" horiz-adv-x="506" 
d="M89 -214q-18 0 -35 4t-30 11v80q32 -13 68 -13q44 0 77 22t53 75l151 393q11 29 14 44.5t-3.5 27t-28.5 18.5v25h146v-25q-32 -12 -48.5 -33t-32.5 -63l-164 -426q-30 -78 -73 -109t-94 -31zM82 355q-18 43 -33.5 62.5t-44.5 30.5v25h190v-25q-24 -7 -31.5 -17.5t-4 -26
t15.5 -46.5l99 -245h23l-58 -128zM226 551l51 140h115v-3l-127 -137h-39z" />
    <glyph glyph-name="ycircumflex.ss07" horiz-adv-x="506" 
d="M89 -214q-18 0 -35 4t-30 11v80q32 -13 68 -13q44 0 77 22t53 75l151 393q11 29 14 44.5t-3.5 27t-28.5 18.5v25h146v-25q-32 -12 -48.5 -33t-32.5 -63l-164 -426q-30 -78 -73 -109t-94 -31zM82 355q-18 43 -33.5 62.5t-44.5 30.5v25h190v-25q-24 -7 -31.5 -17.5t-4 -26
t15.5 -46.5l99 -245h23l-58 -128zM128 551l115 140h54l114 -140h-49l-92 69l-95 -69h-47z" />
    <glyph glyph-name="ydieresis.ss07" horiz-adv-x="506" 
d="M89 -214q-18 0 -35 4t-30 11v80q32 -13 68 -13q44 0 77 22t53 75l151 393q11 29 14 44.5t-3.5 27t-28.5 18.5v25h146v-25q-32 -12 -48.5 -33t-32.5 -63l-164 -426q-30 -78 -73 -109t-94 -31zM82 355q-18 43 -33.5 62.5t-44.5 30.5v25h190v-25q-24 -7 -31.5 -17.5t-4 -26
t15.5 -46.5l99 -245h23l-58 -128zM177 564q-26 0 -43 17.5t-17 43.5q0 25 17.5 42.5t42.5 17.5q24 0 42 -17.5t18 -42.5q0 -26 -17.5 -43.5t-42.5 -17.5zM361 564q-26 0 -43 17.5t-17 43.5q0 25 17.5 42.5t42.5 17.5q24 0 42 -17.5t18 -42.5q0 -26 -17.5 -43.5t-42.5 -17.5z
" />
    <glyph glyph-name="ygrave.ss07" horiz-adv-x="506" 
d="M89 -214q-18 0 -35 4t-30 11v80q32 -13 68 -13q44 0 77 22t53 75l151 393q11 29 14 44.5t-3.5 27t-28.5 18.5v25h146v-25q-32 -12 -48.5 -33t-32.5 -63l-164 -426q-30 -78 -73 -109t-94 -31zM82 355q-18 43 -33.5 62.5t-44.5 30.5v25h190v-25q-24 -7 -31.5 -17.5t-4 -26
t15.5 -46.5l99 -245h23l-58 -128zM314 551h-41l-125 137v3h114z" />
    <glyph glyph-name="uni0233.ss07" horiz-adv-x="506" 
d="M89 -214q-18 0 -35 4t-30 11v80q32 -13 68 -13q44 0 77 22t53 75l151 393q11 29 14 44.5t-3.5 27t-28.5 18.5v25h146v-25q-32 -12 -48.5 -33t-32.5 -63l-164 -426q-30 -78 -73 -109t-94 -31zM82 355q-18 43 -33.5 62.5t-44.5 30.5v25h190v-25q-24 -7 -31.5 -17.5t-4 -26
t15.5 -46.5l99 -245h23l-58 -128zM419 583v48h-296v-48h296z" />
    <glyph glyph-name="z.ss07" horiz-adv-x="456" 
d="M273 48h-127v6l264 379v40h-360v-119h26q13 41 36.5 56t77.5 15h109v-6l-263 -379v-40h381v135h-26q-17 -51 -43 -69t-75 -18z" />
    <glyph glyph-name="zacute.ss07" horiz-adv-x="456" 
d="M273 48h-127v6l264 379v40h-360v-119h26q13 41 36.5 56t77.5 15h109v-6l-263 -379v-40h381v135h-26q-17 -51 -43 -69t-75 -18zM183 551l51 140h115v-3l-127 -137h-39z" />
    <glyph glyph-name="zcaron.ss07" horiz-adv-x="456" 
d="M273 48h-127v6l264 379v40h-360v-119h26q13 41 36.5 56t77.5 15h109v-6l-263 -379v-40h381v135h-26q-17 -51 -43 -69t-75 -18zM368 691l-115 -140h-54l-114 140h49l92 -69l95 69h47z" />
    <glyph glyph-name="zdotaccent.ss07" horiz-adv-x="456" 
d="M273 48h-127v6l264 379v40h-360v-119h26q13 41 36.5 56t77.5 15h109v-6l-263 -379v-40h381v135h-26q-17 -51 -43 -69t-75 -18zM227 562q-26 0 -44 18t-18 45q0 26 18 44t44 18q25 0 43 -18.5t18 -43.5q0 -27 -17.5 -45t-43.5 -18z" />
    <glyph glyph-name="one.ss05" horiz-adv-x="369" 
d="M166 97v410h-138v40q81 6 121.5 36t47.5 97h57v-584q0 -31 3 -44t13.5 -18.5t36.5 -8.5v-25h-197v25q26 3 37 8.5t15 19t4 44.5z" />
    <glyph glyph-name="four.ss05" horiz-adv-x="612" 
d="M110 272v-5h238v287h-6zM348 102v83h-331v45l371 450h45v-413h153v-82h-153v-84q0 -32 3 -46t13.5 -20.5t35.5 -9.5v-25h-191v25q25 3 36 9.5t14.5 21.5t3.5 46z" />
    <glyph glyph-name="comma.ss06" horiz-adv-x="238" 
d="M15 -165l62 272h101v-4l-120 -268h-43z" />
    </font>
</defs>
</svg>
