<?xml version="1.0" standalone="no"?>
<!DOCTYPE svg PUBLIC "-//W3C//DTD SVG 1.1//EN" "http://www.w3.org/Graphics/SVG/1.1/DTD/svg11.dtd" >
<svg xmlns="http://www.w3.org/2000/svg" xmlns:xlink="http://www.w3.org/1999/xlink" version="1.1">
<metadata>
Created by FontForge 20170731 at Mon Aug 27 16:09:09 2018
 By Aleksey,,,
Copyright (c) 2018 by Swiss Typefaces. All rights reserved. |DCNT
</metadata>
<defs>
<font id="EuclidCircularB-SemiBold" horiz-adv-x="0" >
  <font-face 
    font-family="Euclid Circular B SemiBold"
    font-weight="600"
    font-stretch="normal"
    units-per-em="1000"
    panose-1="2 11 7 4 0 0 0 0 0 0"
    ascent="732"
    descent="-268"
    x-height="500"
    cap-height="710"
    bbox="-371 -306 1371 1000"
    underline-thickness="100"
    underline-position="-484"
    unicode-range="U+0020-FEFF"
  />
<missing-glyph horiz-adv-x="644" 
d="M72 0v710h500v-710h-500zM311 355l-220 327v-654zM332 355l221 -327v654zM538 691h-432l216 -321zM322 339l-216 -320h432z" />
    <glyph glyph-name="uni0407_uni0407" unicode="&#x407;&#x407;" horiz-adv-x="606" 
d="M79 0v710h145v-710h-145zM382 0v710h145v-710h-145zM27 772q-32 0 -54 22t-22 53q0 32 22 54t54 22q31 0 53 -22t22 -54q0 -31 -22 -53t-53 -22zM297 772q-32 0 -54 22t-22 53q0 32 22 54t54 22q31 0 53 -22t22 -54q0 -31 -22 -53t-53 -22zM566 772q-32 0 -54 22t-22 53
q0 32 22 54t54 22q31 0 53 -22t22 -54q0 -31 -22 -53t-53 -22z" />
    <glyph glyph-name="uni0457_uni0457" unicode="&#x457;&#x457;" horiz-adv-x="539" 
d="M203 0h-137v500h137v-500zM472 0h-137v500h137v-500zM43 577q-31 0 -53 22t-22 53q0 32 22 54t53 22t53.5 -22t22.5 -54q0 -31 -22.5 -53t-53.5 -22zM268 577q-31 0 -53 22t-22 53q0 32 22 54t53 22q32 0 54 -22t22 -54q0 -31 -22 -53t-54 -22zM496 577q-32 0 -54 22
t-22 53q0 32 22 54t54 22q31 0 53 -22t22 -54q0 -31 -22 -53t-53 -22z" />
    <glyph glyph-name="uni0457_uni0458" unicode="&#x457;&#x458;" horiz-adv-x="539" 
d="M203 0h-137v500h137v-500zM43 577q-31 0 -53 22t-22 53q0 32 22 54t53 22t53.5 -22t22.5 -54q0 -31 -22.5 -53t-53.5 -22zM268 577q-31 0 -53 22t-22 53q0 32 22 54t53 22q32 0 54 -22t22 -54q0 -31 -22 -53t-54 -22zM496 577q-32 0 -54 22t-22 53q0 32 22 54t54 22
q31 0 53 -22t22 -54q0 -31 -22 -53t-53 -22zM472 500v-538q0 -88 -53 -134.5t-132 -46.5q-37 0 -57 4v117q14 -2 26 -2q40 0 59.5 19.5t19.5 64.5v516h137z" />
    <glyph glyph-name="_515" unicode="ff" horiz-adv-x="788" 
d="M119 0v380h-101v120h101v75q0 88 53.5 134.5t137.5 46.5q51 0 87 -11v-121q-9 8 -56 8q-45 0 -65 -19.5t-20 -64.5v-48h110v-120h-110v-380h-137zM495 0v380h-80v120h80v75q0 88 53.5 134.5t137.5 46.5q51 0 87 -11v-121q-18 8 -57 8q-45 0 -64.5 -19.5t-19.5 -64.5v-48
h141v-120h-141v-380h-137z" />
    <glyph glyph-name="f_i" unicode="fi" horiz-adv-x="681" 
d="M119 0v380h-101v120h101v65q0 89 54 140t137 51q51 0 87 -11v-121q-24 9 -56 9q-45 0 -65 -19.5t-20 -65.5v-48h141v-120h-141v-380h-137zM546 582q-35 0 -61 25.5t-26 61.5t26 61.5t61 25.5q37 0 62.5 -25.5t25.5 -61.5t-25.5 -61.5t-62.5 -25.5zM478 0v500h137v-500
h-137z" />
    <glyph glyph-name="_519" unicode="ffi" horiz-adv-x="1057" 
d="M922 582q-35 0 -61 25.5t-26 61.5t26 61.5t61 25.5q37 0 62.5 -25.5t25.5 -61.5t-25.5 -61.5t-62.5 -25.5zM854 0v500h137v-500h-137zM119 0v380h-101v120h101v75q0 88 53.5 134.5t137.5 46.5q51 0 87 -11v-121q-9 8 -56 8q-45 0 -65 -19.5t-20 -64.5v-48h110v-120h-110
v-380h-137zM495 0v380h-80v120h80v75q0 88 53.5 134.5t137.5 46.5q51 0 87 -11v-121q-18 8 -57 8q-45 0 -64.5 -19.5t-19.5 -64.5v-48h141v-120h-141v-380h-137z" />
    <glyph glyph-name="f_l" unicode="fl" horiz-adv-x="681" 
d="M119 0v380h-101v120h101v65q0 89 54 140t137 51q51 0 87 -11v-121q-24 9 -56 9q-45 0 -65 -19.5t-20 -65.5v-48h141v-120h-141v-380h-137zM478 0v750h137v-750h-137z" />
    <glyph glyph-name="_523" unicode="ffl" horiz-adv-x="1057" 
d="M854 0v750h137v-750h-137zM119 0v380h-101v120h101v75q0 88 53.5 134.5t137.5 46.5q51 0 87 -11v-121q-9 8 -56 8q-45 0 -65 -19.5t-20 -64.5v-48h110v-120h-110v-380h-137zM495 0v380h-80v120h80v75q0 88 53.5 134.5t137.5 46.5q51 0 87 -11v-121q-18 8 -57 8
q-45 0 -64.5 -19.5t-19.5 -64.5v-48h141v-120h-141v-380h-137z" />
    <glyph glyph-name="f_t" unicode="ft" horiz-adv-x="815" 
d="M119 0v380h-101v120h101v75q0 88 53.5 134.5t137.5 46.5q51 0 87 -11v-121q-18 8 -56 8q-45 0 -65 -19.5t-20 -64.5v-48h120v-120h-120v-380h-137zM696 -6q-84 0 -137.5 46.5t-53.5 134.5v205h-80v120h80v139h137v-139h141v-120h-141v-178q0 -45 20 -64.5t65 -19.5
q38 0 56 8v-121q-36 -11 -87 -11z" />
    <glyph glyph-name="t_t" unicode="tt" horiz-adv-x="807" 
d="M687 -6q-83 0 -136.5 46.5t-53.5 134.5v205h-83v120h83v139h137v-139h141v-120h-141v-178q0 -46 19.5 -65t64.5 -19q39 0 57 8v-121q-36 -11 -88 -11zM308 -6q-84 0 -137.5 46.5t-53.5 134.5v205h-101v120h101v139h137v-139h112v-120h-112v-178q0 -45 20.5 -64.5
t65.5 -19.5q37 0 55 8v-121q-36 -11 -87 -11z" />
    <glyph glyph-name=".notdef" horiz-adv-x="644" 
d="M72 0v710h500v-710h-500zM311 355l-220 327v-654zM332 355l221 -327v654zM538 691h-432l216 -321zM322 339l-216 -320h432z" />
    <glyph glyph-name=".null" 
 />
    <glyph glyph-name="nonmarkingreturn" horiz-adv-x="333" 
 />
    <glyph glyph-name="space" unicode=" " horiz-adv-x="228" 
 />
    <glyph glyph-name="exclam" unicode="!" horiz-adv-x="288" 
d="M101 256l-26 188v266h138v-266l-27 -188h-85zM143 -8q-42 0 -71 29t-29 71t29 71t71 29q41 0 70.5 -29.5t29.5 -70.5t-29.5 -70.5t-70.5 -29.5z" />
    <glyph glyph-name="quotedbl" unicode="&#x22;" horiz-adv-x="434" 
d="M58 423v287h116v-287h-116zM260 423v287h116v-287h-116z" />
    <glyph glyph-name="numbersign" unicode="#" horiz-adv-x="726" 
d="M323 0l59 185h-143l-58 -185h-117l58 185h-90v105h123l40 131h-90v105h124l56 184h119l-58 -184h142l57 184h118l-58 -184h89v-105h-122l-41 -131h91v-105h-124l-58 -185h-117zM313 421l-41 -131h143l39 131h-141z" />
    <glyph glyph-name="dollar" unicode="$" horiz-adv-x="536" 
d="M242 -88v79q-90 10 -146 67.5t-56 149.5h137q4 -64 65 -83v172l-35 13q-77 28 -122 80.5t-45 128.5q0 89 54 143t148 59v77h54v-78q82 -12 134 -67.5t52 -131.5h-137q-9 48 -49 63v-158l35 -13q84 -31 127 -84t43 -137q0 -90 -54.5 -143.5t-150.5 -58.5v-78h-54zM364 191
q0 52 -68 84v-153q30 4 49 22.5t19 46.5zM177 521q0 -25 15.5 -42t49.5 -32v141q-30 -5 -47.5 -22.5t-17.5 -44.5z" />
    <glyph glyph-name="percent" unicode="%" horiz-adv-x="980" 
d="M336 0h-142l450 710h142zM755 -8q-82 0 -139.5 58t-57.5 139q0 82 57.5 139.5t139.5 57.5q81 0 139 -57.5t58 -139.5q0 -81 -58 -139t-139 -58zM755 108q33 0 56 24t23 57t-23 57t-56 24t-56.5 -24t-23.5 -57t23.5 -57t56.5 -24zM225 324q-82 0 -139.5 58t-57.5 139
q0 82 57.5 139.5t139.5 57.5q81 0 139 -57.5t58 -139.5q0 -81 -58 -139t-139 -58zM225 440q33 0 56.5 24t23.5 57t-23.5 57t-56.5 24t-56.5 -24t-23.5 -57t23.5 -57t56.5 -24z" />
    <glyph glyph-name="ampersand" unicode="&#x26;" horiz-adv-x="770" 
d="M299 -11q-112 0 -174 60.5t-62 152.5q0 66 32 109.5t93 83.5q-76 76 -76 149t57.5 125.5t143.5 52.5q87 0 142.5 -53t55.5 -124q0 -59 -31 -98t-90 -73l116 -112l67 81h164l-142 -167l183 -176h-180l-86 83q-51 -50 -101.5 -72t-111.5 -22zM298 110q62 0 126 58l-147 141
q-80 -52 -80 -111q0 -43 30.5 -65.5t70.5 -22.5zM243 543q0 -23 13 -39.5t42 -42.5q2 -2 3 -2.5t2.5 -2l2.5 -2.5l2 1q37 18 52.5 36t15.5 48t-18.5 48.5t-46.5 18.5t-48 -17t-20 -46z" />
    <glyph glyph-name="quotesingle" unicode="'" horiz-adv-x="232" 
d="M58 423v287h116v-287h-116z" />
    <glyph glyph-name="parenleft" unicode="(" horiz-adv-x="299" 
d="M276 -160h-109q-128 233 -128 480t128 480h109q-121 -235 -121 -480t121 -480z" />
    <glyph glyph-name="parenright" unicode=")" horiz-adv-x="298" 
d="M131 -160h-109q121 235 121 480t-121 480h109q128 -233 128 -480t-128 -480z" />
    <glyph glyph-name="asterisk" unicode="*" horiz-adv-x="492" 
d="M160 303l-77 55l86 117l-138 45l29 91l139 -45v144h95v-144l138 45l29 -90l-138 -46l86 -117l-76 -55l-86 116z" />
    <glyph glyph-name="plus" unicode="+" horiz-adv-x="492" 
d="M36 230v119h151v151h119v-151h150v-119h-150v-151h-119v151h-151z" />
    <glyph glyph-name="comma" unicode="," horiz-adv-x="282" 
d="M220 28l-112 -180h-81l73 152q-25 10 -42 35t-17 57q0 42 29 71t71 29t70.5 -29t28.5 -71q0 -31 -20 -64z" />
    <glyph glyph-name="hyphen" unicode="-" horiz-adv-x="400" 
d="M57 214v132h286v-132h-286z" />
    <glyph glyph-name="period" unicode="." horiz-adv-x="279" 
d="M139 -8q-42 0 -71 29t-29 71t29 71t71 29q41 0 70.5 -29.5t29.5 -70.5t-29.5 -70.5t-70.5 -29.5z" />
    <glyph glyph-name="slash" unicode="/" horiz-adv-x="546" 
d="M18 -110l386 820h124l-386 -820h-124z" />
    <glyph glyph-name="zero" unicode="0" horiz-adv-x="631" 
d="M316 -11q-117 0 -191 79t-74 202v172q0 122 74 201t191 79q116 0 190 -79t74 -201v-172q0 -123 -74 -202t-190 -79zM316 124q58 0 92.5 39t34.5 107v172q0 68 -34.5 106.5t-92.5 38.5t-93 -38.5t-35 -106.5v-172q0 -68 35 -107t93 -39z" />
    <glyph glyph-name="one" unicode="1" horiz-adv-x="368" 
d="M152 0v575h-150l100 135h187v-710h-137z" />
    <glyph glyph-name="two" unicode="2" horiz-adv-x="573" 
d="M525 135v-135h-484v47q0 29 6 56t14.5 47.5t25.5 42.5t29 36t36.5 34t37.5 29.5t41 29t39 27.5q112 78 112 146q0 40 -25 66t-69 26q-47 0 -77.5 -28.5t-29.5 -71.5h-138q0 104 70.5 169.5t177.5 65.5q95 0 161.5 -58t66.5 -161q0 -85 -36.5 -139.5t-113.5 -110.5
q-7 -5 -36 -24.5t-44 -30.5t-33.5 -29t-24.5 -34h294z" />
    <glyph glyph-name="three" unicode="3" horiz-adv-x="588" 
d="M299 -11q-107 0 -183.5 64.5t-80.5 176.5h136q5 -51 39.5 -78.5t88.5 -27.5q48 0 77.5 24t30.5 65q0 45 -31 70t-85 25h-60v112h54q49 0 75 23t27 62q1 36 -25.5 59t-66.5 23q-48 0 -79 -28t-30 -72h-138q0 106 74 170.5t173 64.5q106 0 168 -59.5t62 -146.5
q0 -49 -23 -89.5t-56 -63.5q43 -20 71 -62t28 -99q0 -94 -68 -153.5t-178 -59.5z" />
    <glyph glyph-name="four" unicode="4" horiz-adv-x="637" 
d="M371 0v162h-353v111l368 437h122v-422h93v-126h-93v-162h-137zM186 288h185v219z" />
    <glyph glyph-name="five" unicode="5" horiz-adv-x="572" 
d="M284 -11q-100 0 -174.5 62t-78.5 155h142q9 -36 39.5 -59t71.5 -23q52 0 81.5 31.5t29.5 78.5q0 48 -30.5 79t-78.5 31q-41 0 -70 -20t-41 -54l-121 37l80 403h346v-133h-240l-27 -133q38 24 98 24q100 0 160.5 -68t60.5 -177q0 -106 -68.5 -170t-179.5 -64z" />
    <glyph glyph-name="six" unicode="6" horiz-adv-x="569" 
d="M282 -11q-111 0 -179 69.5t-68 175.5q0 50 18 87.5t64 101.5l212 287h169l-183 -249q84 -4 149.5 -66t65.5 -161q0 -106 -68 -175.5t-180 -69.5zM282 121q48 0 79 32t31 79q0 46 -31.5 79t-78.5 33t-78 -32.5t-31 -79.5t31 -79t78 -32z" />
    <glyph glyph-name="seven" unicode="7" horiz-adv-x="543" 
d="M200 0h-155l321 577h-332v133h495v-118z" />
    <glyph glyph-name="eight" unicode="8" horiz-adv-x="588" 
d="M294 -11q-108 0 -180 65t-72 164q0 116 91 170q-61 55 -61 142q0 83 61.5 137.5t160.5 54.5t160.5 -54.5t61.5 -137.5q0 -86 -61 -141q91 -56 91 -171q0 -99 -72 -164t-180 -65zM294 116q50 0 80.5 30.5t30.5 74.5t-30.5 74.5t-80.5 30.5q-51 0 -81 -30.5t-30 -74.5
t30 -74.5t81 -30.5zM294 436q38 0 63.5 23.5t25.5 58.5t-25.5 58.5t-63.5 23.5t-63.5 -23.5t-25.5 -58.5t25.5 -58.5t63.5 -23.5z" />
    <glyph glyph-name="nine" unicode="9" horiz-adv-x="569" 
d="M70 0l183 250q-83 2 -148.5 65t-65.5 162q0 106 68.5 175.5t179.5 69.5t179.5 -69.5t68.5 -175.5q0 -49 -18 -86.5t-65 -102.5l-212 -288h-170zM287 367q47 0 78.5 33t31.5 79q0 47 -31 79t-79 32t-79 -31.5t-31 -79.5q0 -46 31.5 -79t78.5 -33z" />
    <glyph glyph-name="colon" unicode=":" horiz-adv-x="299" 
d="M149 312q-42 0 -71 29t-29 71t29 71t71 29q41 0 70.5 -29.5t29.5 -70.5t-29.5 -70.5t-70.5 -29.5zM149 -8q-42 0 -71 29t-29 71t29 71t71 29q41 0 70.5 -29.5t29.5 -70.5t-29.5 -70.5t-70.5 -29.5z" />
    <glyph glyph-name="semicolon" unicode=";" horiz-adv-x="302" 
d="M231 28l-112 -180h-81l73 152q-25 10 -42 35t-17 57q0 42 29 71t71 29t70.5 -29t28.5 -71q0 -31 -20 -64zM151 312q-42 0 -71 29t-29 71t29 71t71 29q41 0 70.5 -29.5t29.5 -70.5t-29.5 -70.5t-70.5 -29.5z" />
    <glyph glyph-name="less" unicode="&#x3c;" horiz-adv-x="477" 
d="M450 543l-254 -253l254 -253h-171l-253 253l253 253h171z" />
    <glyph glyph-name="equal" unicode="=" horiz-adv-x="541" 
d="M60 125v118h421v-118h-421zM60 335v119h421v-119h-421z" />
    <glyph glyph-name="greater" unicode="&#x3e;" horiz-adv-x="477" 
d="M281 290l-254 253h171l253 -253l-253 -253h-171z" />
    <glyph glyph-name="question" unicode="?" horiz-adv-x="519" 
d="M166 257v19q0 74 87 134q7 5 25.5 17.5t26 18t18.5 16.5t15 23t4 26q0 35 -23.5 55.5t-59.5 20.5q-39 0 -66.5 -24t-27.5 -66h-137q0 93 67 159t164 66q96 0 158 -60.5t62 -142.5q0 -57 -21 -98t-69 -77q-8 -6 -20.5 -15t-19 -13.5t-15.5 -11.5t-13.5 -11.5t-9 -10.5
t-6.5 -11t-2 -11v-3h-137zM234 -8q-42 0 -71 29t-29 71t29 71t71 29q41 0 70.5 -29.5t29.5 -70.5t-29.5 -70.5t-70.5 -29.5z" />
    <glyph glyph-name="at" unicode="@" horiz-adv-x="803" 
d="M389 -11q-158 0 -253.5 99.5t-95.5 248.5q0 167 114.5 276t272.5 109q150 0 247 -87t97 -229q0 -123 -52 -186t-132 -63q-71 0 -107 51q-44 -49 -123 -49q-71 0 -113.5 49.5t-42.5 122.5q0 91 57.5 155t141.5 64q77 0 106 -59l10 49h98l-46 -220q-16 -79 35 -79
q86 0 86 167q0 112 -75.5 174t-187.5 62q-124 0 -213 -83.5t-89 -223.5q0 -121 72 -195.5t193 -74.5q105 0 178 36v-85q-86 -29 -178 -29zM378 251q40 0 66.5 25.5t35.5 66.5q10 48 -10.5 82t-60.5 34t-67 -25.5t-35 -67.5q-10 -48 10.5 -81.5t60.5 -33.5z" />
    <glyph glyph-name="A" unicode="A" horiz-adv-x="743" 
d="M1 0l306 710h129l307 -710h-152l-69 162h-303l-68 -162h-150zM371 519l-98 -230h195z" />
    <glyph glyph-name="B" unicode="B" horiz-adv-x="634" 
d="M79 0v710h260q89 0 150 -60.5t61 -145.5q0 -77 -56 -127q105 -52 105 -168q0 -89 -63 -149t-157 -60h-300zM224 133h145q41 0 65 22.5t24 58.5t-24 59t-65 23h-145v-163zM224 419h101q38 0 61 22.5t23 56.5q0 33 -23.5 56.5t-60.5 23.5h-101v-159z" />
    <glyph glyph-name="C" unicode="C" horiz-adv-x="753" 
d="M404 -12q-152 0 -259.5 107.5t-107.5 259.5t107.5 259.5t259.5 107.5q106 0 194 -51.5t134 -137.5l-126 -70q-70 119 -202 119q-92 0 -156.5 -66.5t-64.5 -160.5t64.5 -160.5t156.5 -66.5q132 0 202 119l126 -70q-46 -87 -133 -138t-195 -51z" />
    <glyph glyph-name="D" unicode="D" horiz-adv-x="716" 
d="M79 0v710h234q153 0 259 -103t106 -252t-106 -252t-259 -103h-234zM224 133h89q97 0 158 64t61 158t-61 158t-158 64h-89v-444z" />
    <glyph glyph-name="E" unicode="E" horiz-adv-x="568" 
d="M79 0v710h442v-138h-297v-146h237v-138h-237v-150h297v-138h-442z" />
    <glyph glyph-name="F" unicode="F" horiz-adv-x="542" 
d="M79 0v710h432v-138h-287v-147h225v-138h-225v-287h-145z" />
    <glyph glyph-name="G" unicode="G" horiz-adv-x="763" 
d="M423 -12q-165 0 -275 105.5t-110 261.5q0 154 105.5 260.5t267.5 106.5q176 0 286 -116l-101 -100q-74 76 -185 76q-100 0 -163.5 -66t-63.5 -161q0 -98 65 -162.5t173 -64.5q100 0 149 38v123h-153v136h294v-333q-47 -50 -124.5 -77t-164.5 -27z" />
    <glyph glyph-name="H" unicode="H" horiz-adv-x="756" 
d="M79 0v710h145v-283h308v283h145v-710h-145v289h-308v-289h-145z" />
    <glyph glyph-name="I" unicode="I" horiz-adv-x="303" 
d="M79 0v710h145v-710h-145z" />
    <glyph glyph-name="J" unicode="J" horiz-adv-x="547" 
d="M246 -12q-96 0 -161 55.5t-65 160.5h143q0 -39 23.5 -60t59.5 -21t59.5 20.5t23.5 60.5v506h144v-516q0 -102 -65 -154t-162 -52z" />
    <glyph glyph-name="K" unicode="K" horiz-adv-x="694" 
d="M531 0l-308 322v-322h-144v710h144v-301l256 301h179l-292 -341l353 -369h-188z" />
    <glyph glyph-name="L" unicode="L" horiz-adv-x="551" 
d="M79 0v710h145v-572h304v-138h-449z" />
    <glyph glyph-name="M" unicode="M" horiz-adv-x="884" 
d="M79 710h132l231 -317l231 317h132v-710h-145v462l-218 -299l-218 299v-462h-145v710z" />
    <glyph glyph-name="N" unicode="N" horiz-adv-x="792" 
d="M713 0h-125l-364 463v-463h-145v710h125l364 -463v463h145v-710z" />
    <glyph glyph-name="O" unicode="O" horiz-adv-x="808" 
d="M404 128q92 0 156.5 66.5t64.5 160.5t-64.5 160.5t-156.5 66.5t-156.5 -66.5t-64.5 -160.5t64.5 -160.5t156.5 -66.5zM404 -12q-152 0 -259.5 107.5t-107.5 259.5t107.5 259.5t259.5 107.5t259.5 -107.5t107.5 -259.5t-107.5 -259.5t-259.5 -107.5z" />
    <glyph glyph-name="P" unicode="P" horiz-adv-x="591" 
d="M564 471q0 -102 -71 -170.5t-178 -68.5h-91v-232h-145v710h236q107 0 178 -68.5t71 -170.5zM423 471q0 45 -30 74t-80 29h-89v-206h89q50 0 80 29t30 74z" />
    <glyph glyph-name="Q" unicode="Q" horiz-adv-x="840" 
d="M404 -12q-152 0 -259.5 107.5t-107.5 259.5t107.5 259.5t259.5 107.5t259.5 -107.5t107.5 -259.5q0 -107 -58 -199l189 -156h-204l-74 61q-95 -73 -220 -73zM404 128q59 0 106 28l-104 87l83 100l111 -93q25 49 25 105q0 94 -64.5 160.5t-156.5 66.5t-156.5 -66.5
t-64.5 -160.5t64.5 -160.5t156.5 -66.5z" />
    <glyph glyph-name="R" unicode="R" horiz-adv-x="656" 
d="M79 0v710h272q97 0 157.5 -60t60.5 -150q0 -140 -146 -185l255 -315h-175l-244 299h-35v-299h-145zM224 423h110q42 0 66.5 20.5t24.5 56.5t-24.5 56.5t-66.5 20.5h-110v-154z" />
    <glyph glyph-name="S" unicode="S" horiz-adv-x="571" 
d="M286 -12q-84 0 -152.5 33.5t-106.5 93.5l111 93q26 -39 67.5 -61.5t86.5 -22.5q43 0 69 19t26 50q0 30 -23 52t-76 40l-60 21q-175 61 -175 203q0 98 67 155.5t173 57.5q136 0 224 -98l-96 -99q-51 61 -127 61q-39 0 -67 -16.5t-28 -46.5q0 -31 24.5 -49t85.5 -40l57 -21
q169 -63 169 -211q0 -95 -69.5 -154.5t-179.5 -59.5z" />
    <glyph glyph-name="T" unicode="T" horiz-adv-x="568" 
d="M210 0v572h-189v138h526v-138h-191v-572h-146z" />
    <glyph glyph-name="U" unicode="U" horiz-adv-x="720" 
d="M360 -12q-129 0 -209 80t-80 212v430h145v-432q0 -70 39 -110t105 -40t105 40t39 110v432h145v-430q0 -131 -81 -211.5t-208 -80.5z" />
    <glyph glyph-name="V" unicode="V" horiz-adv-x="721" 
d="M296 0l-293 710h157l201 -493l198 493h160l-294 -710h-129z" />
    <glyph glyph-name="W" unicode="W" horiz-adv-x="961" 
d="M637 0l-156 377l-156 -377h-136l-171 710h154l108 -472l201 484l201 -484l108 472h154l-171 -710h-136z" />
    <glyph glyph-name="X" unicode="X" horiz-adv-x="697" 
d="M164 0h-170l267 359l-252 351h168l171 -239l172 239h168l-253 -351l268 -359h-170l-185 246z" />
    <glyph glyph-name="Y" unicode="Y" horiz-adv-x="690" 
d="M272 0v299l-262 411h168l166 -269l167 269h169l-263 -412v-298h-145z" />
    <glyph glyph-name="Z" unicode="Z" horiz-adv-x="618" 
d="M38 0v99l339 473h-333v138h529v-99l-341 -473h348v-138h-542z" />
    <glyph glyph-name="bracketleft" unicode="[" horiz-adv-x="325" 
d="M76 -160v960h221v-100h-105v-760h105v-100h-221z" />
    <glyph glyph-name="backslash" unicode="\" horiz-adv-x="546" 
d="M142 710l386 -820h-124l-386 820h124z" />
    <glyph glyph-name="bracketright" unicode="]" horiz-adv-x="325" 
d="M249 800v-960h-221v100h105v760h-105v100h221z" />
    <glyph glyph-name="asciicircum" unicode="^" horiz-adv-x="347" 
d="M121 500h-80l107 210h52l106 -210h-79l-54 103z" />
    <glyph glyph-name="underscore" unicode="_" horiz-adv-x="515" 
d="M41 -105v105h433v-105h-433z" />
    <glyph glyph-name="grave" unicode="`" 
d="M31 560l-163 190h159l106 -190h-102z" />
    <glyph glyph-name="a" unicode="a" horiz-adv-x="617" 
d="M269 -11q-99 0 -167 77t-68 184t68 184t167 77q48 0 86 -20t58 -47v56h137v-500h-137v56q-20 -27 -58 -47t-86 -20zM298 114q57 0 91.5 38t34.5 98t-34.5 98t-91.5 38t-91.5 -38t-34.5 -98t34.5 -98t91.5 -38z" />
    <glyph glyph-name="b" unicode="b" horiz-adv-x="617" 
d="M348 -11q-48 0 -87 20t-58 47v-56h-137v750h137v-306q19 27 58 47t87 20q99 0 167 -77t68 -184t-68 -184t-167 -77zM318 114q57 0 91.5 38t34.5 98t-34.5 98t-91.5 38t-91.5 -38t-34.5 -98t34.5 -98t91.5 -38z" />
    <glyph glyph-name="c" unicode="c" horiz-adv-x="558" 
d="M299 -11q-112 0 -188.5 74.5t-76.5 186.5t76.5 186.5t188.5 74.5q77 0 140.5 -39.5t96.5 -104.5l-119 -64q-16 36 -46.5 58t-71.5 22q-54 0 -90.5 -38t-36.5 -95t36.5 -95t90.5 -38q41 0 71.5 22t46.5 58l119 -64q-33 -65 -96.5 -104.5t-140.5 -39.5z" />
    <glyph glyph-name="d" unicode="d" horiz-adv-x="617" 
d="M269 -11q-99 0 -167 77t-68 184t68 184t167 77q48 0 86 -20t58 -47v306h137v-750h-137v56q-20 -27 -58 -47t-86 -20zM298 114q57 0 91.5 38t34.5 98t-34.5 98t-91.5 38t-91.5 -38t-34.5 -98t34.5 -98t91.5 -38z" />
    <glyph glyph-name="e" unicode="e" horiz-adv-x="578" 
d="M299 -11q-114 0 -189.5 72t-75.5 189q0 112 75 186.5t188 74.5q104 0 175 -64.5t71 -181.5q0 -33 -2 -47h-374q6 -49 43.5 -76.5t89.5 -27.5q88 0 129 63l102 -76q-77 -112 -232 -112zM172 311h234q-9 43 -40.5 65t-72.5 22q-42 0 -77 -22t-44 -65z" />
    <glyph glyph-name="f" unicode="f" horiz-adv-x="412" 
d="M119 0v380h-101v120h101v65q0 89 54 140t137 51q51 0 87 -11v-121q-24 9 -56 9q-45 0 -65 -19.5t-20 -65.5v-48h141v-120h-141v-380h-137z" />
    <glyph glyph-name="g" unicode="g" horiz-adv-x="617" 
d="M299 130q53 0 90 36t37 92t-37 92t-90 36t-90 -36t-37 -92t37 -92t90 -36zM283 -219q-150 0 -233 80l75 102q63 -62 156 -62q60 0 97 38t37 99v34q-21 -29 -60 -47.5t-85 -18.5q-98 0 -167 73.5t-69 178.5q0 106 69 179.5t167 73.5q47 0 85.5 -18.5t59.5 -48.5v56h137
v-461q0 -129 -74 -193.5t-195 -64.5z" />
    <glyph glyph-name="h" unicode="h" horiz-adv-x="599" 
d="M203 0h-137v750h137v-307q46 68 143 68q90 0 141.5 -59.5t51.5 -158.5v-293h-137v270q0 55 -23 85.5t-65 30.5q-50 0 -80.5 -36t-30.5 -106v-244z" />
    <glyph glyph-name="i" unicode="i" horiz-adv-x="269" 
d="M134 582q-35 0 -61 25.5t-26 61.5t26 61.5t61 25.5q37 0 62.5 -25.5t25.5 -61.5t-25.5 -61.5t-62.5 -25.5zM66 0v500h137v-500h-137z" />
    <glyph glyph-name="j" unicode="j" horiz-adv-x="277" 
d="M211 500v-538q0 -88 -53 -134.5t-133 -46.5q-36 0 -56 4v117q14 -2 26 -2q79 0 79 84v516h137zM142 582q-35 0 -61 25.5t-26 61.5t26 61.5t61 25.5q37 0 62.5 -25.5t25.5 -61.5t-25.5 -61.5t-62.5 -25.5z" />
    <glyph glyph-name="k" unicode="k" horiz-adv-x="556" 
d="M407 0l-204 230v-230h-137v750h137v-434l162 184h165l-198 -225l244 -275h-169z" />
    <glyph glyph-name="l" unicode="l" horiz-adv-x="269" 
d="M66 0v750h137v-750h-137z" />
    <glyph glyph-name="m" unicode="m" horiz-adv-x="893" 
d="M696 0v267q0 119 -78 119q-45 0 -71.5 -34t-28.5 -101v-251h-137v267q0 119 -78 119q-46 0 -73 -36t-27 -106v-244h-137v500h137v-57q47 68 133 68q105 0 155 -92q22 43 66 67.5t89 24.5q89 0 138 -59t49 -162v-290h-137z" />
    <glyph glyph-name="n" unicode="n" horiz-adv-x="599" 
d="M66 0v500h137v-57q46 68 143 68q90 0 141.5 -59.5t51.5 -158.5v-293h-137v270q0 55 -23 85.5t-65 30.5q-50 0 -80.5 -36t-30.5 -106v-244h-137z" />
    <glyph glyph-name="o" unicode="o" horiz-adv-x="592" 
d="M296 -11q-109 0 -186 75.5t-77 185.5q0 109 77 185t186 76t186 -76t77 -185q0 -110 -77 -185.5t-186 -75.5zM296 117q53 0 88.5 37.5t35.5 95.5t-35.5 95.5t-88.5 37.5q-54 0 -89.5 -37.5t-35.5 -95.5t35.5 -95.5t89.5 -37.5z" />
    <glyph glyph-name="p" unicode="p" horiz-adv-x="617" 
d="M203 -209h-137v709h137v-56q19 27 58 47t87 20q99 0 167 -77t68 -184t-68 -184t-167 -77q-48 0 -87 20t-58 47v-265zM318 114q57 0 91.5 38t34.5 98t-34.5 98t-91.5 38t-91.5 -38t-34.5 -98t34.5 -98t91.5 -38z" />
    <glyph glyph-name="q" unicode="q" horiz-adv-x="617" 
d="M550 -209h-137v265q-20 -27 -58 -47t-86 -20q-99 0 -167 77t-68 184t68 184t167 77q48 0 86 -20t58 -47v56h137v-709zM298 114q57 0 91.5 38t34.5 98t-34.5 98t-91.5 38t-91.5 -38t-34.5 -98t34.5 -98t91.5 -38z" />
    <glyph glyph-name="r" unicode="r" horiz-adv-x="395" 
d="M66 0v500h137v-80q13 37 47.5 61.5t76.5 24.5q26 0 46 -6v-139q-33 11 -62 11q-49 0 -78.5 -35.5t-29.5 -97.5v-239h-137z" />
    <glyph glyph-name="s" unicode="s" horiz-adv-x="459" 
d="M234 -11q-142 0 -206 96l94 80q36 -58 112 -58q23 0 39 9t16 27q0 16 -13.5 26.5t-53.5 21.5l-37 9q-69 18 -104.5 60t-33.5 100q2 68 54.5 109.5t133.5 41.5q115 0 173 -84l-90 -73q-35 44 -85 44q-20 0 -35 -9t-15 -25q0 -30 49 -43l47 -14q145 -39 145 -155
q0 -71 -54 -117t-136 -46z" />
    <glyph glyph-name="t" unicode="t" horiz-adv-x="427" 
d="M308 -6q-84 0 -137.5 46.5t-53.5 134.5v205h-101v120h101v139h137v-139h141v-120h-141v-178q0 -46 20 -65.5t65 -19.5q32 0 56 9v-121q-36 -11 -87 -11z" />
    <glyph glyph-name="u" unicode="u" horiz-adv-x="588" 
d="M248 -11q-89 0 -138.5 60t-49.5 161v290h137v-267q0 -119 85 -119q48 0 75.5 36t27.5 106v244h137v-500h-137v57q-46 -68 -137 -68z" />
    <glyph glyph-name="v" unicode="v" horiz-adv-x="570" 
d="M222 0l-221 500h151l132 -320l132 320h153l-222 -500h-125z" />
    <glyph glyph-name="w" unicode="w" horiz-adv-x="800" 
d="M494 0l-94 284l-93 -284h-136l-166 500h146l95 -320l101 320h105l102 -320l94 320h147l-165 -500h-136z" />
    <glyph glyph-name="x" unicode="x" horiz-adv-x="567" 
d="M400 0l-116 147l-116 -147h-165l194 245l-189 255h162l113 -153l113 153h163l-189 -255l194 -245h-164z" />
    <glyph glyph-name="y" unicode="y" horiz-adv-x="570" 
d="M256 -209h-149l105 237l-210 472h150l134 -324l133 324h151z" />
    <glyph glyph-name="z" unicode="z" horiz-adv-x="498" 
d="M41 0v107l234 269h-231v124h408v-108l-234 -268h242v-124h-419z" />
    <glyph glyph-name="braceleft" unicode="{" horiz-adv-x="340" 
d="M313 -160h-82q-66 0 -103 38t-37 104v229q0 59 -54 59h-9v100h9q54 0 54 57v231q0 66 37 104t103 38h82v-100h-48q-32 0 -44.5 -14t-12.5 -47v-218q0 -83 -61 -101q61 -18 61 -103v-216q0 -33 12.5 -47t44.5 -14h48v-100z" />
    <glyph glyph-name="bar" unicode="|" horiz-adv-x="267" 
d="M75 -110v820h116v-820h-116z" />
    <glyph glyph-name="braceright" unicode="}" horiz-adv-x="340" 
d="M109 -160h-82v100h48q32 0 44.5 14t12.5 47v216q0 85 61 103q-61 18 -61 101v218q0 33 -12.5 47t-44.5 14h-48v100h82q66 0 103 -38t37 -104v-231q0 -57 54 -57h9v-100h-9q-54 0 -54 -59v-229q0 -66 -37 -104t-103 -38z" />
    <glyph glyph-name="asciitilde" unicode="~" horiz-adv-x="346" 
d="M59 230l55 119h46l38 -46l21 46h72l-55 -119h-46l-39 46l-21 -46h-71z" />
    <glyph glyph-name="uni00A0" unicode="&#xa0;" horiz-adv-x="228" 
 />
    <glyph glyph-name="exclamdown" unicode="&#xa1;" horiz-adv-x="277" 
d="M180 247l27 -188v-268h-138v268l27 188h84zM138 311q-42 0 -71 29t-29 71t29 71t71 29q41 0 70.5 -29.5t29.5 -70.5t-29.5 -70.5t-70.5 -29.5z" />
    <glyph glyph-name="cent" unicode="&#xa2;" horiz-adv-x="589" 
d="M274 -88v79q-103 8 -169 82t-66 177t66 176t169 83v79h54v-78q90 -8 150.5 -63t79.5 -138h-142q-28 64 -88 75v-269q62 13 88 76h142q-18 -84 -79 -138.5t-151 -62.5v-78h-54zM177 250q0 -54 26 -90t71 -45v269q-45 -9 -71 -44.5t-26 -89.5z" />
    <glyph glyph-name="sterling" unicode="&#xa3;" horiz-adv-x="588" 
d="M46 330v56h71q-24 74 -24 123q0 80 64.5 146.5t159.5 66.5q97 0 162 -68.5t67 -162.5h-137q0 40 -26.5 68t-65.5 28t-63 -24t-24 -65q0 -39 28 -112h171v-56h-152q17 -48 17 -99q0 -49 -27 -96h279v-135h-500v135h89q23 44 23 92q0 34 -21 103h-91z" />
    <glyph glyph-name="yen" unicode="&#xa5;" horiz-adv-x="722" 
d="M77 298v57h178l-230 355h167l168 -274l169 274h167l-230 -355h178v-57h-215v-75h215v-57h-215v-166h-137v166h-215v57h215v75h-215z" />
    <glyph glyph-name="brokenbar" unicode="&#xa6;" horiz-adv-x="267" 
d="M75 -110v347h116v-347h-116zM75 363v347h116v-347h-116z" />
    <glyph glyph-name="section" unicode="&#xa7;" horiz-adv-x="454" 
d="M236 -219q-72 0 -124.5 41t-58.5 126h116q10 -67 67 -67q22 0 38.5 14.5t15.5 41.5q0 30 -16.5 55.5t-63.5 52.5l-56 34q-105 63 -105 164q0 95 81 165q-81 64 -81 157q0 72 46.5 114.5t117.5 42.5t122 -41t57 -126h-116q-10 67 -59 67q-23 0 -37.5 -14t-14.5 -42
q0 -29 15 -48.5t63 -49.5l57 -34q106 -64 106 -164q0 -95 -82 -166q42 -33 62 -79t20 -87q0 -72 -49 -114.5t-121 -42.5zM164 258q0 -34 15.5 -53.5t48.5 -39.5l4 -3q59 46 59 93q0 33 -16 52.5t-49 40.5l-3 2q-59 -41 -59 -92z" />
    <glyph glyph-name="dieresis" unicode="&#xa8;" 
d="M-117 577q-32 0 -54 22t-22 53q0 32 22 54t54 22q31 0 53 -22t22 -54q0 -31 -22 -53t-53 -22zM118 577q-32 0 -54 22t-22 53q0 32 22 54t54 22q31 0 53 -22t22 -54q0 -31 -22 -53t-53 -22z" />
    <glyph glyph-name="copyright" unicode="&#xa9;" horiz-adv-x="807" 
d="M403 72q117 0 200 83t83 200t-83 200t-200 83q-116 0 -199 -83t-83 -200t83 -200t199 -83zM403 -12q-151 0 -258.5 108t-107.5 259t107.5 259t258.5 108t259 -108t108 -259t-108 -259t-259 -108zM405 163q-80 0 -136.5 56t-56.5 136q0 79 56.5 135.5t136.5 56.5
q57 0 103.5 -27.5t70.5 -74.5l-75 -40q-33 61 -99 61q-45 0 -76.5 -33t-31.5 -78t31.5 -78t76.5 -33q66 0 99 60l75 -39q-24 -47 -70.5 -74.5t-103.5 -27.5z" />
    <glyph glyph-name="ordfeminine" unicode="&#xaa;" horiz-adv-x="405" 
d="M172 403q-58 0 -98 46.5t-40 110.5t40 110.5t98 46.5q48 0 77 -34v27h97v-300h-97v27q-29 -34 -77 -34zM195 491q28 0 45 19.5t17 49.5t-17 49.5t-45 19.5q-29 0 -46 -19.5t-17 -49.5t17 -49.5t46 -19.5z" />
    <glyph glyph-name="guillemotleft" unicode="&#xab;" horiz-adv-x="525" 
d="M232 250l141 217h118l-116 -217l116 -217h-118zM29 250l141 217h118l-116 -217l116 -217h-118z" />
    <glyph glyph-name="uni00AD" unicode="&#xad;" horiz-adv-x="400" 
d="M57 214v132h286v-132h-286z" />
    <glyph glyph-name="registered" unicode="&#xae;" horiz-adv-x="807" 
d="M403 -12q-151 0 -258.5 108t-107.5 259t107.5 259t258.5 108t259 -108t108 -259t-108 -259t-259 -108zM403 72q117 0 200 83t83 200t-83 200t-200 83q-116 0 -199 -83t-83 -200t83 -200t199 -83zM279 169v371h147q53 0 84 -31.5t31 -80.5q0 -70 -73 -95l132 -164h-100
l-124 153h-13v-153h-84zM363 393h53q18 0 30 9.5t12 25.5q0 17 -11.5 26t-30.5 9h-53v-70z" />
    <glyph glyph-name="macron" unicode="&#xaf;" 
d="M-171 613v97h342v-97h-342z" />
    <glyph glyph-name="degree" unicode="&#xb0;" horiz-adv-x="374" 
d="M188 498q26 0 44 18t18 44t-18 44t-44 18q-27 0 -45 -18t-18 -44t18 -44t45 -18zM188 406q-64 0 -109 45t-45 109t45 109t109 45q63 0 108 -45t45 -109t-45 -109t-108 -45z" />
    <glyph glyph-name="twosuperior" unicode="&#xb2;" horiz-adv-x="355" 
d="M325 506v-96h-300v32q0 18 4 35t8 29.5t15 26.5t17 21.5t22.5 21t21.5 17.5t25 17.5t24 16.5q63 41 63 82q0 19 -12 31.5t-34 12.5q-25 0 -40 -15t-14 -35h-98q0 63 44.5 104.5t110.5 41.5q58 0 99.5 -35.5t41.5 -100.5q0 -55 -23 -90t-64 -63q-2 -1 -21.5 -13t-32.5 -22
t-18 -19h161z" />
    <glyph glyph-name="threesuperior" unicode="&#xb3;" horiz-adv-x="364" 
d="M185 403q-65 0 -113.5 39.5t-50.5 111.5h97q6 -55 67 -55q26 0 41 12.5t15 32.5q0 21 -16.5 34t-43.5 13h-39v77h33q53 0 53 44q0 18 -13 29.5t-33 11.5q-24 0 -39.5 -14.5t-15.5 -35.5h-97q0 66 46.5 106t106.5 40q68 0 105.5 -37t37.5 -91q0 -58 -43 -93
q23 -11 39 -35.5t16 -58.5q0 -57 -42.5 -94t-110.5 -37z" />
    <glyph glyph-name="acute" unicode="&#xb4;" 
d="M-133 560l106 190h159l-163 -190h-102z" />
    <glyph glyph-name="paragraph" unicode="&#xb6;" horiz-adv-x="664" 
d="M251 -184v444q-93 0 -159 66t-66 159t66 159t159 66h323v-894h-116v774h-90v-774h-117z" />
    <glyph glyph-name="periodcentered" unicode="&#xb7;" horiz-adv-x="289" 
d="M144 180q-42 0 -71 29t-29 71t29 71t71 29q41 0 70.5 -29.5t29.5 -70.5t-29.5 -70.5t-70.5 -29.5z" />
    <glyph glyph-name="cedilla" unicode="&#xb8;" 
d="M-118 -204v63q30 -17 76 -17q62 0 62 33q0 28 -44 28q-22 0 -41 -10l-35 19l55 91h62l-31 -51q26 7 47 7q37 0 61 -21t24 -58q0 -43 -41 -71t-95 -28q-62 0 -100 15z" />
    <glyph glyph-name="onesuperior" unicode="&#xb9;" horiz-adv-x="243" 
d="M99 410v336h-95l68 96h124v-432h-97z" />
    <glyph glyph-name="ordmasculine" unicode="&#xba;" horiz-adv-x="381" 
d="M190 403q-64 0 -110.5 45.5t-46.5 111.5t46.5 111.5t110.5 45.5q65 0 111.5 -45.5t46.5 -111.5t-46.5 -111.5t-111.5 -45.5zM190 494q26 0 43.5 18.5t17.5 47.5t-17.5 47.5t-43.5 18.5q-25 0 -42.5 -18.5t-17.5 -47.5t17.5 -47.5t42.5 -18.5z" />
    <glyph glyph-name="guillemotright" unicode="&#xbb;" horiz-adv-x="525" 
d="M355 467l141 -217l-141 -217h-118l116 217l-116 217h118zM152 467l141 -217l-141 -217h-118l116 217l-116 217h118z" />
    <glyph glyph-name="onequarter" unicode="&#xbc;" horiz-adv-x="826" 
d="M100 278v336h-95l68 96h124v-432h-97zM181 0h-118l500 710h118zM654 1v90h-208v79l218 263h88v-253h55v-89h-55v-90h-98zM564 180h90v108z" />
    <glyph glyph-name="onehalf" unicode="&#xbd;" horiz-adv-x="815" 
d="M100 278v336h-95l68 96h124v-432h-97zM181 0h-118l500 710h118zM785 97v-96h-300v32q0 18 4 35t8 29.5t15 26.5t17 21.5t22.5 21t21.5 17.5t25 17.5t24 16.5q63 41 63 82q0 19 -12 31.5t-34 12.5q-25 0 -40 -15t-14 -35h-98q0 63 44.5 104.5t110.5 41.5q58 0 99.5 -35.5
t41.5 -100.5q0 -55 -23 -90t-64 -63q-2 -1 -21.5 -13t-32.5 -22t-18 -19h161z" />
    <glyph glyph-name="threequarters" unicode="&#xbe;" horiz-adv-x="910" 
d="M185 271q-65 0 -113.5 39.5t-50.5 111.5h97q6 -55 67 -55q26 0 41 12.5t15 32.5q0 21 -16.5 34t-43.5 13h-39v77h33q53 0 53 44q0 18 -13 29.5t-33 11.5q-24 0 -39.5 -14.5t-15.5 -35.5h-97q0 66 46.5 106t106.5 40q68 0 105.5 -37t37.5 -91q0 -58 -43 -93
q23 -11 39 -35.5t16 -58.5q0 -57 -42.5 -94t-110.5 -37zM265 0h-118l500 710h118zM738 1v90h-208v79l218 263h88v-253h55v-89h-55v-90h-98zM648 180h90v108z" />
    <glyph glyph-name="questiondown" unicode="&#xbf;" horiz-adv-x="511" 
d="M348 246v-19q0 -74 -87 -134q-6 -4 -26 -17.5t-26 -18.5t-17.5 -16.5t-15.5 -23t-4 -25.5q0 -35 23.5 -55.5t59.5 -20.5q39 0 66.5 24t27.5 66h137q0 -93 -67 -159t-164 -66q-96 0 -158 60.5t-62 142.5q0 57 21 98t69 77q8 6 20.5 15t19 13.5t15.5 11.5t13.5 11.5t9 10.5
t6.5 11t2 11v3h137zM280 511q42 0 71 -29t29 -71t-29 -71t-71 -29t-71 29t-29 71t29 71t71 29z" />
    <glyph glyph-name="Agrave" unicode="&#xc0;" horiz-adv-x="743" 
d="M1 0l306 710h129l307 -710h-152l-69 162h-303l-68 -162h-150zM371 519l-98 -230h195zM417 770h-103l-123 157h154z" />
    <glyph glyph-name="Aacute" unicode="&#xc1;" horiz-adv-x="743" 
d="M1 0l306 710h129l307 -710h-152l-69 162h-303l-68 -162h-150zM371 519l-98 -230h195zM328 770l72 157h154l-123 -157h-103z" />
    <glyph glyph-name="Acircumflex" unicode="&#xc2;" horiz-adv-x="743" 
d="M1 0l306 710h129l307 -710h-152l-69 162h-303l-68 -162h-150zM371 519l-98 -230h195zM198 763v109l174 73l174 -73v-109l-174 72z" />
    <glyph glyph-name="Atilde" unicode="&#xc3;" horiz-adv-x="743" 
d="M1 0l306 710h129l307 -710h-152l-69 162h-303l-68 -162h-150zM371 519l-98 -230h195zM183 778l4 26q8 52 41.5 82t76.5 30q34 0 77 -23t55 -23q19 0 28.5 11t15.5 36h79l-4 -26q-8 -52 -41.5 -82t-76.5 -30q-34 0 -77 23t-55 23q-19 0 -28.5 -11t-15.5 -36h-79z" />
    <glyph glyph-name="Adieresis" unicode="&#xc4;" horiz-adv-x="743" 
d="M1 0l306 710h129l307 -710h-152l-69 162h-303l-68 -162h-150zM371 519l-98 -230h195zM255 772q-32 0 -54 22t-22 53q0 32 22 54t54 22q31 0 53 -22t22 -54q0 -31 -22 -53t-53 -22zM490 772q-32 0 -54 22t-22 53q0 32 22 54t54 22q31 0 53 -22t22 -54q0 -31 -22 -53
t-53 -22z" />
    <glyph glyph-name="Aring" unicode="&#xc5;" horiz-adv-x="743" 
d="M1 0l306 710h129l307 -710h-152l-69 162h-303l-68 -162h-150zM371 519l-98 -230h195zM373 753q-50 0 -86 35.5t-36 84.5t36 84.5t86 35.5t86 -35.5t36 -84.5t-36 -84.5t-86 -35.5zM373 815q25 0 42 17t17 41t-17 41t-42 17t-42 -17t-17 -41t17 -41t42 -17z" />
    <glyph glyph-name="AE" unicode="&#xc6;" horiz-adv-x="941" 
d="M452 0v162h-231l-90 -162h-158l401 710h520v-138h-297v-146h237v-138h-237v-150h297v-138h-442zM450 572l-158 -283h160v283h-2z" />
    <glyph glyph-name="Ccedilla" unicode="&#xc7;" horiz-adv-x="753" 
d="M404 -12q-152 0 -259.5 107.5t-107.5 259.5t107.5 259.5t259.5 107.5q106 0 194 -51.5t134 -137.5l-126 -70q-70 119 -202 119q-92 0 -156.5 -66.5t-64.5 -160.5t64.5 -160.5t156.5 -66.5q132 0 202 119l126 -70q-46 -87 -133 -138t-195 -51zM286 -204v63q30 -17 76 -17
q62 0 62 33q0 28 -44 28q-22 0 -41 -10l-35 19l55 91h62l-31 -51q28 7 47 7q37 0 61 -21t24 -58q0 -43 -41 -71t-95 -28q-62 0 -100 15z" />
    <glyph glyph-name="Egrave" unicode="&#xc8;" horiz-adv-x="568" 
d="M79 0v710h442v-138h-297v-146h237v-138h-237v-150h297v-138h-442zM345 770h-103l-123 157h154z" />
    <glyph glyph-name="Eacute" unicode="&#xc9;" horiz-adv-x="568" 
d="M79 0v710h442v-138h-297v-146h237v-138h-237v-150h297v-138h-442zM255 770l72 157h154l-123 -157h-103z" />
    <glyph glyph-name="Ecircumflex" unicode="&#xca;" horiz-adv-x="568" 
d="M79 0v710h442v-138h-297v-146h237v-138h-237v-150h297v-138h-442zM125 763v109l174 73l174 -73v-109l-174 72z" />
    <glyph glyph-name="Edieresis" unicode="&#xcb;" horiz-adv-x="568" 
d="M79 0v710h442v-138h-297v-146h237v-138h-237v-150h297v-138h-442zM182 772q-32 0 -54 22t-22 53q0 32 22 54t54 22q31 0 53 -22t22 -54q0 -31 -22 -53t-53 -22zM417 772q-32 0 -54 22t-22 53q0 32 22 54t54 22q31 0 53 -22t22 -54q0 -31 -22 -53t-53 -22z" />
    <glyph glyph-name="Igrave" unicode="&#xcc;" horiz-adv-x="303" 
d="M79 0v710h145v-710h-145zM197 770h-103l-123 157h154z" />
    <glyph glyph-name="Iacute" unicode="&#xcd;" horiz-adv-x="303" 
d="M79 0v710h145v-710h-145zM108 770l72 157h154l-123 -157h-103z" />
    <glyph glyph-name="Icircumflex" unicode="&#xce;" horiz-adv-x="303" 
d="M79 0v710h145v-710h-145zM-22 763v109l174 73l174 -73v-109l-174 72z" />
    <glyph glyph-name="Idieresis" unicode="&#xcf;" horiz-adv-x="303" 
d="M79 0v710h145v-710h-145zM35 772q-32 0 -54 22t-22 53q0 32 22 54t54 22q31 0 53 -22t22 -54q0 -31 -22 -53t-53 -22zM270 772q-32 0 -54 22t-22 53q0 32 22 54t54 22q31 0 53 -22t22 -54q0 -31 -22 -53t-53 -22z" />
    <glyph glyph-name="Eth" unicode="&#xd0;" horiz-adv-x="731" 
d="M94 0v710h234q153 0 259 -103t106 -252t-106 -252t-259 -103h-234zM239 133h89q97 0 158 64t61 158t-61 158t-158 64h-89v-444zM22 295v126h345v-126h-345z" />
    <glyph glyph-name="Ntilde" unicode="&#xd1;" horiz-adv-x="792" 
d="M713 0h-125l-364 463v-463h-145v710h125l364 -463v463h145v-710zM206 778l4 26q8 52 41.5 82t76.5 30q34 0 77 -23t55 -23q19 0 28.5 11t15.5 36h79l-4 -26q-8 -52 -41.5 -82t-76.5 -30q-34 0 -77 23t-55 23q-19 0 -28.5 -11t-15.5 -36h-79z" />
    <glyph glyph-name="Ograve" unicode="&#xd2;" horiz-adv-x="808" 
d="M404 128q92 0 156.5 66.5t64.5 160.5t-64.5 160.5t-156.5 66.5t-156.5 -66.5t-64.5 -160.5t64.5 -160.5t156.5 -66.5zM404 -12q-152 0 -259.5 107.5t-107.5 259.5t107.5 259.5t259.5 107.5t259.5 -107.5t107.5 -259.5t-107.5 -259.5t-259.5 -107.5zM449 770h-103
l-123 157h154z" />
    <glyph glyph-name="Oacute" unicode="&#xd3;" horiz-adv-x="808" 
d="M404 128q92 0 156.5 66.5t64.5 160.5t-64.5 160.5t-156.5 66.5t-156.5 -66.5t-64.5 -160.5t64.5 -160.5t156.5 -66.5zM404 -12q-152 0 -259.5 107.5t-107.5 259.5t107.5 259.5t259.5 107.5t259.5 -107.5t107.5 -259.5t-107.5 -259.5t-259.5 -107.5zM360 770l72 157h154
l-123 -157h-103z" />
    <glyph glyph-name="Ocircumflex" unicode="&#xd4;" horiz-adv-x="808" 
d="M404 128q92 0 156.5 66.5t64.5 160.5t-64.5 160.5t-156.5 66.5t-156.5 -66.5t-64.5 -160.5t64.5 -160.5t156.5 -66.5zM404 -12q-152 0 -259.5 107.5t-107.5 259.5t107.5 259.5t259.5 107.5t259.5 -107.5t107.5 -259.5t-107.5 -259.5t-259.5 -107.5zM230 763v109l174 73
l174 -73v-109l-174 72z" />
    <glyph glyph-name="Otilde" unicode="&#xd5;" horiz-adv-x="808" 
d="M404 128q92 0 156.5 66.5t64.5 160.5t-64.5 160.5t-156.5 66.5t-156.5 -66.5t-64.5 -160.5t64.5 -160.5t156.5 -66.5zM404 -12q-152 0 -259.5 107.5t-107.5 259.5t107.5 259.5t259.5 107.5t259.5 -107.5t107.5 -259.5t-107.5 -259.5t-259.5 -107.5zM215 778l4 26
q8 52 41.5 82t76.5 30q34 0 77 -23t55 -23q19 0 28.5 11t15.5 36h79l-4 -26q-8 -52 -41.5 -82t-76.5 -30q-34 0 -77 23t-55 23q-19 0 -28.5 -11t-15.5 -36h-79z" />
    <glyph glyph-name="Odieresis" unicode="&#xd6;" horiz-adv-x="808" 
d="M404 128q92 0 156.5 66.5t64.5 160.5t-64.5 160.5t-156.5 66.5t-156.5 -66.5t-64.5 -160.5t64.5 -160.5t156.5 -66.5zM404 -12q-152 0 -259.5 107.5t-107.5 259.5t107.5 259.5t259.5 107.5t259.5 -107.5t107.5 -259.5t-107.5 -259.5t-259.5 -107.5zM287 772q-32 0 -54 22
t-22 53q0 32 22 54t54 22q31 0 53 -22t22 -54q0 -31 -22 -53t-53 -22zM522 772q-32 0 -54 22t-22 53q0 32 22 54t54 22q31 0 53 -22t22 -54q0 -31 -22 -53t-53 -22z" />
    <glyph glyph-name="multiply" unicode="&#xd7;" horiz-adv-x="506" 
d="M126 78l-84 84l127 127l-127 127l84 84l127 -126l128 126l83 -84l-126 -127l126 -127l-83 -84l-128 126z" />
    <glyph glyph-name="Oslash" unicode="&#xd8;" horiz-adv-x="814" 
d="M407 128q92 0 156.5 66.5t64.5 160.5t-64.5 160.5t-156.5 66.5t-156.5 -66.5t-64.5 -160.5t64.5 -160.5t156.5 -66.5zM407 -12q-152 0 -259.5 107.5t-107.5 259.5t107.5 259.5t259.5 107.5t259.5 -107.5t107.5 -259.5t-107.5 -259.5t-259.5 -107.5zM773 647l-650 -665
l-81 81l649 665z" />
    <glyph glyph-name="Ugrave" unicode="&#xd9;" horiz-adv-x="720" 
d="M360 -12q-129 0 -209 80t-80 212v430h145v-432q0 -70 39 -110t105 -40t105 40t39 110v432h145v-430q0 -131 -81 -211.5t-208 -80.5zM405 770h-103l-123 157h154z" />
    <glyph glyph-name="Uacute" unicode="&#xda;" horiz-adv-x="720" 
d="M360 -12q-129 0 -209 80t-80 212v430h145v-432q0 -70 39 -110t105 -40t105 40t39 110v432h145v-430q0 -131 -81 -211.5t-208 -80.5zM316 770l72 157h154l-123 -157h-103z" />
    <glyph glyph-name="Ucircumflex" unicode="&#xdb;" horiz-adv-x="720" 
d="M360 -12q-129 0 -209 80t-80 212v430h145v-432q0 -70 39 -110t105 -40t105 40t39 110v432h145v-430q0 -131 -81 -211.5t-208 -80.5zM186 763v109l174 73l174 -73v-109l-174 72z" />
    <glyph glyph-name="Udieresis" unicode="&#xdc;" horiz-adv-x="720" 
d="M360 -12q-129 0 -209 80t-80 212v430h145v-432q0 -70 39 -110t105 -40t105 40t39 110v432h145v-430q0 -131 -81 -211.5t-208 -80.5zM243 772q-32 0 -54 22t-22 53q0 32 22 54t54 22q31 0 53 -22t22 -54q0 -31 -22 -53t-53 -22zM478 772q-32 0 -54 22t-22 53q0 32 22 54
t54 22q31 0 53 -22t22 -54q0 -31 -22 -53t-53 -22z" />
    <glyph glyph-name="Yacute" unicode="&#xdd;" horiz-adv-x="690" 
d="M272 0v299l-262 411h168l166 -269l167 269h169l-263 -412v-298h-145zM301 770l72 157h154l-123 -157h-103z" />
    <glyph glyph-name="Thorn" unicode="&#xde;" horiz-adv-x="597" 
d="M564 355q0 -102 -71 -170.5t-178 -68.5h-91v-116h-145v710h145v-116h91q107 0 178 -68.5t71 -170.5zM423 355q0 45 -30 74t-80 29h-89v-206h89q50 0 80 29t30 74z" />
    <glyph glyph-name="germandbls" unicode="&#xdf;" horiz-adv-x="586" 
d="M66 0v530q0 102 67.5 164t163.5 62q93 0 159 -59.5t66 -147.5q0 -90 -75 -154q50 -28 77.5 -75t27.5 -96q0 -98 -69 -161t-169 -63h-38v124h31q47 0 77.5 28.5t30.5 72.5t-30.5 72.5t-77.5 28.5h-30v124h16q41 0 66.5 26t25.5 65t-25 65t-64 26q-40 0 -67 -28.5
t-27 -72.5v-531h-136z" />
    <glyph glyph-name="agrave" unicode="&#xe0;" horiz-adv-x="617" 
d="M269 -11q-99 0 -167 77t-68 184t68 184t167 77q48 0 86 -20t58 -47v56h137v-500h-137v56q-20 -27 -58 -47t-86 -20zM298 114q57 0 91.5 38t34.5 98t-34.5 98t-91.5 38t-91.5 -38t-34.5 -98t34.5 -98t91.5 -38zM268 560l-163 190h159l106 -190h-102z" />
    <glyph glyph-name="aacute" unicode="&#xe1;" horiz-adv-x="617" 
d="M269 -11q-99 0 -167 77t-68 184t68 184t167 77q48 0 86 -20t58 -47v56h137v-500h-137v56q-20 -27 -58 -47t-86 -20zM298 114q57 0 91.5 38t34.5 98t-34.5 98t-91.5 38t-91.5 -38t-34.5 -98t34.5 -98t91.5 -38zM274 560l106 190h159l-163 -190h-102z" />
    <glyph glyph-name="acircumflex" unicode="&#xe2;" horiz-adv-x="617" 
d="M269 -11q-99 0 -167 77t-68 184t68 184t167 77q48 0 86 -20t58 -47v56h137v-500h-137v56q-20 -27 -58 -47t-86 -20zM298 114q57 0 91.5 38t34.5 98t-34.5 98t-91.5 38t-91.5 -38t-34.5 -98t34.5 -98t91.5 -38zM320 756l174 -98v-110l-174 98l-174 -98v110z" />
    <glyph glyph-name="atilde" unicode="&#xe3;" horiz-adv-x="617" 
d="M269 -11q-99 0 -167 77t-68 184t68 184t167 77q48 0 86 -20t58 -47v56h137v-500h-137v56q-20 -27 -58 -47t-86 -20zM298 114q57 0 91.5 38t34.5 98t-34.5 98t-91.5 38t-91.5 -38t-34.5 -98t34.5 -98t91.5 -38zM131 571l4 26q8 52 41.5 82t76.5 30q34 0 77 -23t55 -23
q19 0 28.5 11t15.5 36h79l-4 -26q-8 -52 -41.5 -82t-76.5 -30q-34 0 -77 23t-55 23q-19 0 -28.5 -11t-15.5 -36h-79z" />
    <glyph glyph-name="adieresis" unicode="&#xe4;" horiz-adv-x="617" 
d="M269 -11q-99 0 -167 77t-68 184t68 184t167 77q48 0 86 -20t58 -47v56h137v-500h-137v56q-20 -27 -58 -47t-86 -20zM298 114q57 0 91.5 38t34.5 98t-34.5 98t-91.5 38t-91.5 -38t-34.5 -98t34.5 -98t91.5 -38zM203 577q-32 0 -54 22t-22 53q0 32 22 54t54 22q31 0 53 -22
t22 -54q0 -31 -22 -53t-53 -22zM438 577q-32 0 -54 22t-22 53q0 32 22 54t54 22q31 0 53 -22t22 -54q0 -31 -22 -53t-53 -22z" />
    <glyph glyph-name="aring" unicode="&#xe5;" horiz-adv-x="617" 
d="M269 -11q-99 0 -167 77t-68 184t68 184t167 77q48 0 86 -20t58 -47v56h137v-500h-137v56q-20 -27 -58 -47t-86 -20zM298 114q57 0 91.5 38t34.5 98t-34.5 98t-91.5 38t-91.5 -38t-34.5 -98t34.5 -98t91.5 -38zM321 543q-50 0 -86 35.5t-36 84.5t36 84.5t86 35.5t86 -35.5
t36 -84.5t-36 -84.5t-86 -35.5zM321 605q25 0 42 17t17 41t-17 41t-42 17t-42 -17t-17 -41t17 -41t42 -17z" />
    <glyph glyph-name="ae" unicode="&#xe6;" horiz-adv-x="891" 
d="M227 -11q-90 0 -142.5 43t-52.5 108q0 72 57.5 110.5t171.5 51.5q40 4 94 7v15q0 34 -22 54.5t-60 20.5q-76 0 -115 -70l-107 53q24 58 83 93.5t139 35.5q107 0 160 -74q71 74 185 74q98 0 168 -65t70 -181q0 -33 -2 -47h-374q6 -49 43.5 -76.5t89.5 -27.5q88 0 129 63
l102 -76q-36 -52 -94.5 -82t-125.5 -30q-139 0 -211 87q-61 -87 -186 -87zM248 94q43 0 75 23.5t32 68.5v33q-80 -6 -118 -14q-65 -15 -65 -61q0 -50 76 -50zM485 311h234q-9 43 -40.5 65t-72.5 22q-42 0 -77 -22t-44 -65z" />
    <glyph glyph-name="ccedilla" unicode="&#xe7;" horiz-adv-x="558" 
d="M299 -11q-112 0 -188.5 74.5t-76.5 186.5t76.5 186.5t188.5 74.5q77 0 140.5 -39.5t96.5 -104.5l-119 -64q-16 36 -46.5 58t-71.5 22q-54 0 -90.5 -38t-36.5 -95t36.5 -95t90.5 -38q41 0 71.5 22t46.5 58l119 -64q-33 -65 -96.5 -104.5t-140.5 -39.5zM182 -204v63
q30 -17 76 -17q62 0 62 33q0 28 -44 28q-22 0 -41 -10l-35 19l55 91h62l-31 -51q26 7 47 7q37 0 61 -21t24 -58q0 -43 -41 -71t-95 -28q-62 0 -100 15z" />
    <glyph glyph-name="egrave" unicode="&#xe8;" horiz-adv-x="578" 
d="M299 -11q-114 0 -189.5 72t-75.5 189q0 112 75 186.5t188 74.5q104 0 175 -64.5t71 -181.5q0 -33 -2 -47h-374q6 -49 43.5 -76.5t89.5 -27.5q88 0 129 63l102 -76q-77 -112 -232 -112zM172 311h234q-9 43 -40.5 65t-72.5 22q-42 0 -77 -22t-44 -65zM247 560l-163 190h159
l106 -190h-102z" />
    <glyph glyph-name="eacute" unicode="&#xe9;" horiz-adv-x="578" 
d="M299 -11q-114 0 -189.5 72t-75.5 189q0 112 75 186.5t188 74.5q104 0 175 -64.5t71 -181.5q0 -33 -2 -47h-374q6 -49 43.5 -76.5t89.5 -27.5q88 0 129 63l102 -76q-77 -112 -232 -112zM172 311h234q-9 43 -40.5 65t-72.5 22q-42 0 -77 -22t-44 -65zM252 560l106 190h159
l-163 -190h-102z" />
    <glyph glyph-name="ecircumflex" unicode="&#xea;" horiz-adv-x="578" 
d="M299 -11q-114 0 -189.5 72t-75.5 189q0 112 75 186.5t188 74.5q104 0 175 -64.5t71 -181.5q0 -33 -2 -47h-374q6 -49 43.5 -76.5t89.5 -27.5q88 0 129 63l102 -76q-77 -112 -232 -112zM172 311h234q-9 43 -40.5 65t-72.5 22q-42 0 -77 -22t-44 -65zM298 756l174 -98v-110
l-174 98l-174 -98v110z" />
    <glyph glyph-name="edieresis" unicode="&#xeb;" horiz-adv-x="578" 
d="M299 -11q-114 0 -189.5 72t-75.5 189q0 112 75 186.5t188 74.5q104 0 175 -64.5t71 -181.5q0 -33 -2 -47h-374q6 -49 43.5 -76.5t89.5 -27.5q88 0 129 63l102 -76q-77 -112 -232 -112zM172 311h234q-9 43 -40.5 65t-72.5 22q-42 0 -77 -22t-44 -65zM181 577q-32 0 -54 22
t-22 53q0 32 22 54t54 22q31 0 53 -22t22 -54q0 -31 -22 -53t-53 -22zM416 577q-32 0 -54 22t-22 53q0 32 22 54t54 22q31 0 53 -22t22 -54q0 -31 -22 -53t-53 -22z" />
    <glyph glyph-name="igrave" unicode="&#xec;" horiz-adv-x="269" 
d="M66 0v500h137v-500h-137zM84 560l-163 190h159l106 -190h-102z" />
    <glyph glyph-name="iacute" unicode="&#xed;" horiz-adv-x="269" 
d="M66 0v500h137v-500h-137zM89 560l106 190h159l-163 -190h-102z" />
    <glyph glyph-name="icircumflex" unicode="&#xee;" horiz-adv-x="269" 
d="M66 0v500h137v-500h-137zM135 756l174 -98v-110l-174 98l-174 -98v110z" />
    <glyph glyph-name="idieresis" unicode="&#xef;" horiz-adv-x="269" 
d="M66 0v500h137v-500h-137zM40 577q-32 0 -54 22t-22 53q0 32 22 54t54 22q31 0 53 -22t22 -54q0 -31 -22 -53t-53 -22zM229 577q-31 0 -53 22t-22 53q0 32 22 54t53 22q32 0 54 -22t22 -54q0 -31 -22 -53t-54 -22z" />
    <glyph glyph-name="eth" unicode="&#xf0;" horiz-adv-x="594" 
d="M461 563h-56l106 -161q49 -74 49 -152q0 -108 -76.5 -184.5t-186.5 -76.5t-186.5 76.5t-76.5 184.5q0 78 40.5 138.5t97 89t113.5 28.5h5l-37 57h-136v90h77l-63 97h152l63 -97h115v-90zM297 117q54 0 89.5 37.5t35.5 95.5t-35.5 95.5t-89.5 37.5t-89.5 -37.5
t-35.5 -95.5t35.5 -95.5t89.5 -37.5z" />
    <glyph glyph-name="ntilde" unicode="&#xf1;" horiz-adv-x="599" 
d="M66 0v500h137v-57q46 68 143 68q90 0 141.5 -59.5t51.5 -158.5v-293h-137v270q0 55 -23 85.5t-65 30.5q-50 0 -80.5 -36t-30.5 -106v-244h-137zM113 571l4 26q8 52 41.5 82t76.5 30q34 0 77 -23t55 -23q19 0 28.5 11t15.5 36h79l-4 -26q-8 -52 -41.5 -82t-76.5 -30
q-34 0 -77 23t-55 23q-19 0 -28.5 -11t-15.5 -36h-79z" />
    <glyph glyph-name="ograve" unicode="&#xf2;" horiz-adv-x="592" 
d="M296 -11q-109 0 -186 75.5t-77 185.5q0 109 77 185t186 76t186 -76t77 -185q0 -110 -77 -185.5t-186 -75.5zM296 117q53 0 88.5 37.5t35.5 95.5t-35.5 95.5t-88.5 37.5q-54 0 -89.5 -37.5t-35.5 -95.5t35.5 -95.5t89.5 -37.5zM244 560l-163 190h159l106 -190h-102z" />
    <glyph glyph-name="oacute" unicode="&#xf3;" horiz-adv-x="592" 
d="M296 -11q-109 0 -186 75.5t-77 185.5q0 109 77 185t186 76t186 -76t77 -185q0 -110 -77 -185.5t-186 -75.5zM296 117q53 0 88.5 37.5t35.5 95.5t-35.5 95.5t-88.5 37.5q-54 0 -89.5 -37.5t-35.5 -95.5t35.5 -95.5t89.5 -37.5zM250 560l106 190h159l-163 -190h-102z" />
    <glyph glyph-name="ocircumflex" unicode="&#xf4;" horiz-adv-x="592" 
d="M296 -11q-109 0 -186 75.5t-77 185.5q0 109 77 185t186 76t186 -76t77 -185q0 -110 -77 -185.5t-186 -75.5zM296 117q53 0 88.5 37.5t35.5 95.5t-35.5 95.5t-88.5 37.5q-54 0 -89.5 -37.5t-35.5 -95.5t35.5 -95.5t89.5 -37.5zM296 756l174 -98v-110l-174 98l-174 -98v110
z" />
    <glyph glyph-name="otilde" unicode="&#xf5;" horiz-adv-x="592" 
d="M296 -11q-109 0 -186 75.5t-77 185.5q0 109 77 185t186 76t186 -76t77 -185q0 -110 -77 -185.5t-186 -75.5zM296 117q53 0 88.5 37.5t35.5 95.5t-35.5 95.5t-88.5 37.5q-54 0 -89.5 -37.5t-35.5 -95.5t35.5 -95.5t89.5 -37.5zM107 571l4 26q8 52 41.5 82t76.5 30
q34 0 77 -23t55 -23q19 0 28.5 11t15.5 36h79l-4 -26q-8 -52 -41.5 -82t-76.5 -30q-34 0 -77 23t-55 23q-19 0 -28.5 -11t-15.5 -36h-79z" />
    <glyph glyph-name="odieresis" unicode="&#xf6;" horiz-adv-x="592" 
d="M296 -11q-109 0 -186 75.5t-77 185.5q0 109 77 185t186 76t186 -76t77 -185q0 -110 -77 -185.5t-186 -75.5zM296 117q53 0 88.5 37.5t35.5 95.5t-35.5 95.5t-88.5 37.5q-54 0 -89.5 -37.5t-35.5 -95.5t35.5 -95.5t89.5 -37.5zM179 577q-32 0 -54 22t-22 53q0 32 22 54
t54 22q31 0 53 -22t22 -54q0 -31 -22 -53t-53 -22zM414 577q-32 0 -54 22t-22 53q0 32 22 54t54 22q31 0 53 -22t22 -54q0 -31 -22 -53t-53 -22z" />
    <glyph glyph-name="oslash" unicode="&#xf8;" horiz-adv-x="598" 
d="M300 -11q-109 0 -186 75.5t-77 185.5q0 109 77 185t186 76t186 -76t77 -185q0 -110 -77 -185.5t-186 -75.5zM300 117q53 0 88.5 37.5t35.5 95.5t-35.5 95.5t-88.5 37.5q-54 0 -89.5 -37.5t-35.5 -95.5t35.5 -95.5t89.5 -37.5zM559 464l-474 -475l-46 47l474 475z" />
    <glyph glyph-name="ugrave" unicode="&#xf9;" horiz-adv-x="588" 
d="M248 -11q-89 0 -138.5 60t-49.5 161v290h137v-267q0 -119 85 -119q48 0 75.5 36t27.5 106v244h137v-500h-137v57q-46 -68 -137 -68zM240 560l-163 190h159l106 -190h-102z" />
    <glyph glyph-name="uacute" unicode="&#xfa;" horiz-adv-x="588" 
d="M248 -11q-89 0 -138.5 60t-49.5 161v290h137v-267q0 -119 85 -119q48 0 75.5 36t27.5 106v244h137v-500h-137v57q-46 -68 -137 -68zM245 560l106 190h159l-163 -190h-102z" />
    <glyph glyph-name="ucircumflex" unicode="&#xfb;" horiz-adv-x="588" 
d="M248 -11q-89 0 -138.5 60t-49.5 161v290h137v-267q0 -119 85 -119q48 0 75.5 36t27.5 106v244h137v-500h-137v57q-46 -68 -137 -68zM291 756l174 -98v-110l-174 98l-174 -98v110z" />
    <glyph glyph-name="udieresis" unicode="&#xfc;" horiz-adv-x="588" 
d="M248 -11q-89 0 -138.5 60t-49.5 161v290h137v-267q0 -119 85 -119q48 0 75.5 36t27.5 106v244h137v-500h-137v57q-46 -68 -137 -68zM174 577q-32 0 -54 22t-22 53q0 32 22 54t54 22q31 0 53 -22t22 -54q0 -31 -22 -53t-53 -22zM409 577q-32 0 -54 22t-22 53q0 32 22 54
t54 22q31 0 53 -22t22 -54q0 -31 -22 -53t-53 -22z" />
    <glyph glyph-name="yacute" unicode="&#xfd;" horiz-adv-x="570" 
d="M256 -209h-149l105 237l-210 472h150l134 -324l133 324h151zM241 560l106 190h159l-163 -190h-102z" />
    <glyph glyph-name="thorn" unicode="&#xfe;" horiz-adv-x="617" 
d="M203 -209h-137v959h137v-306q19 27 58 47t87 20q99 0 167 -77t68 -184t-68 -184t-167 -77q-48 0 -87 20t-58 47v-265zM318 114q57 0 91.5 38t34.5 98t-34.5 98t-91.5 38t-91.5 -38t-34.5 -98t34.5 -98t91.5 -38z" />
    <glyph glyph-name="ydieresis" unicode="&#xff;" horiz-adv-x="570" 
d="M256 -209h-149l105 237l-210 472h150l134 -324l133 324h151zM171 577q-32 0 -54 22t-22 53q0 32 22 54t54 22q31 0 53 -22t22 -54q0 -31 -22 -53t-53 -22zM406 577q-32 0 -54 22t-22 53q0 32 22 54t54 22q31 0 53 -22t22 -54q0 -31 -22 -53t-53 -22z" />
    <glyph glyph-name="Amacron" unicode="&#x100;" horiz-adv-x="743" 
d="M1 0l306 710h129l307 -710h-152l-69 162h-303l-68 -162h-150zM371 519l-98 -230h195zM201 791v96h342v-96h-342z" />
    <glyph glyph-name="amacron" unicode="&#x101;" horiz-adv-x="617" 
d="M269 -11q-99 0 -167 77t-68 184t68 184t167 77q48 0 86 -20t58 -47v56h137v-500h-137v56q-20 -27 -58 -47t-86 -20zM298 114q57 0 91.5 38t34.5 98t-34.5 98t-91.5 38t-91.5 -38t-34.5 -98t34.5 -98t91.5 -38zM149 613v97h342v-97h-342z" />
    <glyph glyph-name="Abreve" unicode="&#x102;" horiz-adv-x="743" 
d="M1 0l306 710h129l307 -710h-152l-69 162h-303l-68 -162h-150zM371 519l-98 -230h195zM372 750q-74 0 -124 48.5t-50 126.5h80q0 -46 26.5 -70.5t67.5 -24.5t67.5 24.5t26.5 70.5h80q0 -78 -50 -126.5t-124 -48.5z" />
    <glyph glyph-name="abreve" unicode="&#x103;" horiz-adv-x="617" 
d="M269 -11q-99 0 -167 77t-68 184t68 184t167 77q48 0 86 -20t58 -47v56h137v-500h-137v56q-20 -27 -58 -47t-86 -20zM298 114q57 0 91.5 38t34.5 98t-34.5 98t-91.5 38t-91.5 -38t-34.5 -98t34.5 -98t91.5 -38zM320 558q-74 0 -124 48t-50 126v18h80v-18q0 -45 27 -70
t67 -25t67 25t27 70v18h80v-18q0 -78 -50 -126t-124 -48z" />
    <glyph glyph-name="Aogonek" unicode="&#x104;" horiz-adv-x="743" 
d="M1 0l306 710h129l307 -710q-87 -38 -87 -88q0 -26 36 -26q29 0 51 16v-93q-40 -28 -103 -28q-50 0 -80 27.5t-30 72.5q0 71 61 119l-69 162h-303l-68 -162h-150zM371 519l-98 -230h195z" />
    <glyph glyph-name="aogonek" unicode="&#x105;" horiz-adv-x="617" 
d="M269 -11q-99 0 -167 77t-68 184t68 184t167 77q48 0 86 -20t58 -47v56h137v-500h-137v56q-20 -27 -58 -47t-86 -20zM298 114q57 0 91.5 38t34.5 98t-34.5 98t-91.5 38t-91.5 -38t-34.5 -98t34.5 -98t91.5 -38zM452 -219q-50 0 -78.5 27.5t-28.5 72.5q0 68 68 119h137
q-86 -39 -86 -92q0 -30 36 -30q28 0 50 16v-85q-37 -28 -98 -28z" />
    <glyph glyph-name="Cacute" unicode="&#x106;" horiz-adv-x="753" 
d="M404 -12q-152 0 -259.5 107.5t-107.5 259.5t107.5 259.5t259.5 107.5q106 0 194 -51.5t134 -137.5l-126 -70q-70 119 -202 119q-92 0 -156.5 -66.5t-64.5 -160.5t64.5 -160.5t156.5 -66.5q132 0 202 119l126 -70q-46 -87 -133 -138t-195 -51zM360 770l72 157h154
l-123 -157h-103z" />
    <glyph glyph-name="cacute" unicode="&#x107;" horiz-adv-x="558" 
d="M299 -11q-112 0 -188.5 74.5t-76.5 186.5t76.5 186.5t188.5 74.5q77 0 140.5 -39.5t96.5 -104.5l-119 -64q-16 36 -46.5 58t-71.5 22q-54 0 -90.5 -38t-36.5 -95t36.5 -95t90.5 -38q41 0 71.5 22t46.5 58l119 -64q-33 -65 -96.5 -104.5t-140.5 -39.5zM253 560l106 190
h159l-163 -190h-102z" />
    <glyph glyph-name="Ccircumflex" unicode="&#x108;" horiz-adv-x="753" 
d="M404 -12q-152 0 -259.5 107.5t-107.5 259.5t107.5 259.5t259.5 107.5q106 0 194 -51.5t134 -137.5l-126 -70q-70 119 -202 119q-92 0 -156.5 -66.5t-64.5 -160.5t64.5 -160.5t156.5 -66.5q132 0 202 119l126 -70q-46 -87 -133 -138t-195 -51zM230 763v109l174 73l174 -73
v-109l-174 72z" />
    <glyph glyph-name="ccircumflex" unicode="&#x109;" horiz-adv-x="558" 
d="M299 -11q-112 0 -188.5 74.5t-76.5 186.5t76.5 186.5t188.5 74.5q77 0 140.5 -39.5t96.5 -104.5l-119 -64q-16 36 -46.5 58t-71.5 22q-54 0 -90.5 -38t-36.5 -95t36.5 -95t90.5 -38q41 0 71.5 22t46.5 58l119 -64q-33 -65 -96.5 -104.5t-140.5 -39.5zM299 756l174 -98
v-110l-174 98l-174 -98v110z" />
    <glyph glyph-name="Cdotaccent" unicode="&#x10a;" horiz-adv-x="753" 
d="M404 -12q-152 0 -259.5 107.5t-107.5 259.5t107.5 259.5t259.5 107.5q106 0 194 -51.5t134 -137.5l-126 -70q-70 119 -202 119q-92 0 -156.5 -66.5t-64.5 -160.5t64.5 -160.5t156.5 -66.5q132 0 202 119l126 -70q-46 -87 -133 -138t-195 -51zM404 772q-32 0 -54 22
t-22 53q0 32 22 54t54 22q31 0 53 -22t22 -54q0 -31 -22 -53t-53 -22z" />
    <glyph glyph-name="cdotaccent" unicode="&#x10b;" horiz-adv-x="558" 
d="M299 -11q-112 0 -188.5 74.5t-76.5 186.5t76.5 186.5t188.5 74.5q77 0 140.5 -39.5t96.5 -104.5l-119 -64q-16 36 -46.5 58t-71.5 22q-54 0 -90.5 -38t-36.5 -95t36.5 -95t90.5 -38q41 0 71.5 22t46.5 58l119 -64q-33 -65 -96.5 -104.5t-140.5 -39.5zM299 577
q-32 0 -54 22t-22 53q0 32 22 54t54 22q31 0 53 -22t22 -54q0 -31 -22 -53t-53 -22z" />
    <glyph glyph-name="Ccaron" unicode="&#x10c;" horiz-adv-x="753" 
d="M404 -12q-152 0 -259.5 107.5t-107.5 259.5t107.5 259.5t259.5 107.5q106 0 194 -51.5t134 -137.5l-126 -70q-70 119 -202 119q-92 0 -156.5 -66.5t-64.5 -160.5t64.5 -160.5t156.5 -66.5q132 0 202 119l126 -70q-46 -87 -133 -138t-195 -51zM404 763l-174 72v110
l174 -73l174 73v-110z" />
    <glyph glyph-name="ccaron" unicode="&#x10d;" horiz-adv-x="558" 
d="M299 -11q-112 0 -188.5 74.5t-76.5 186.5t76.5 186.5t188.5 74.5q77 0 140.5 -39.5t96.5 -104.5l-119 -64q-16 36 -46.5 58t-71.5 22q-54 0 -90.5 -38t-36.5 -95t36.5 -95t90.5 -38q41 0 71.5 22t46.5 58l119 -64q-33 -65 -96.5 -104.5t-140.5 -39.5zM299 548l-174 98
v110l174 -98l174 98v-110z" />
    <glyph glyph-name="Dcaron" unicode="&#x10e;" horiz-adv-x="716" 
d="M79 0v710h234q153 0 259 -103t106 -252t-106 -252t-259 -103h-234zM224 133h89q97 0 158 64t61 158t-61 158t-158 64h-89v-444zM338 763l-174 72v110l174 -73l174 73v-110z" />
    <glyph glyph-name="dcaron" unicode="&#x10f;" horiz-adv-x="617" 
d="M269 -11q-99 0 -167 77t-68 184t68 184t167 77q48 0 86 -20t58 -47v306h137v-750h-137v56q-20 -27 -58 -47t-86 -20zM298 114q57 0 91.5 38t34.5 98t-34.5 98t-91.5 38t-91.5 -38t-34.5 -98t34.5 -98t91.5 -38zM570 589l21 161h137l-65 -161h-93z" />
    <glyph glyph-name="Dcroat" unicode="&#x110;" horiz-adv-x="731" 
d="M94 0v710h234q153 0 259 -103t106 -252t-106 -252t-259 -103h-234zM239 133h89q97 0 158 64t61 158t-61 158t-158 64h-89v-444zM22 295v126h345v-126h-345z" />
    <glyph glyph-name="dcroat" unicode="&#x111;" horiz-adv-x="617" 
d="M269 -11q-99 0 -167 77t-68 184t68 184t167 77q48 0 86 -20t58 -47v306h137v-750h-137v56q-20 -27 -58 -47t-86 -20zM298 114q57 0 91.5 38t34.5 98t-34.5 98t-91.5 38t-91.5 -38t-34.5 -98t34.5 -98t91.5 -38zM612 567h-339v90h339v-90z" />
    <glyph glyph-name="Emacron" unicode="&#x112;" horiz-adv-x="568" 
d="M79 0v710h442v-138h-297v-146h237v-138h-237v-150h297v-138h-442zM128 791v96h342v-96h-342z" />
    <glyph glyph-name="emacron" unicode="&#x113;" horiz-adv-x="578" 
d="M299 -11q-114 0 -189.5 72t-75.5 189q0 112 75 186.5t188 74.5q104 0 175 -64.5t71 -181.5q0 -33 -2 -47h-374q6 -49 43.5 -76.5t89.5 -27.5q88 0 129 63l102 -76q-77 -112 -232 -112zM172 311h234q-9 43 -40.5 65t-72.5 22q-42 0 -77 -22t-44 -65zM127 613v97h342v-97
h-342z" />
    <glyph glyph-name="Ebreve" unicode="&#x114;" horiz-adv-x="568" 
d="M79 0v710h442v-138h-297v-146h237v-138h-237v-150h297v-138h-442zM299 750q-74 0 -124 48.5t-50 126.5h80q0 -46 26.5 -70.5t67.5 -24.5t67.5 24.5t26.5 70.5h80q0 -78 -50 -126.5t-124 -48.5z" />
    <glyph glyph-name="ebreve" unicode="&#x115;" horiz-adv-x="578" 
d="M299 -11q-114 0 -189.5 72t-75.5 189q0 112 75 186.5t188 74.5q104 0 175 -64.5t71 -181.5q0 -33 -2 -47h-374q6 -49 43.5 -76.5t89.5 -27.5q88 0 129 63l102 -76q-77 -112 -232 -112zM172 311h234q-9 43 -40.5 65t-72.5 22q-42 0 -77 -22t-44 -65zM298 558
q-74 0 -124 48t-50 126v18h80v-18q0 -45 27 -70t67 -25t67 25t27 70v18h80v-18q0 -78 -50 -126t-124 -48z" />
    <glyph glyph-name="Edotaccent" unicode="&#x116;" horiz-adv-x="568" 
d="M79 0v710h442v-138h-297v-146h237v-138h-237v-150h297v-138h-442zM299 772q-32 0 -54 22t-22 53q0 32 22 54t54 22q31 0 53 -22t22 -54q0 -31 -22 -53t-53 -22z" />
    <glyph glyph-name="edotaccent" unicode="&#x117;" horiz-adv-x="578" 
d="M299 -11q-114 0 -189.5 72t-75.5 189q0 112 75 186.5t188 74.5q104 0 175 -64.5t71 -181.5q0 -33 -2 -47h-374q6 -49 43.5 -76.5t89.5 -27.5q88 0 129 63l102 -76q-77 -112 -232 -112zM172 311h234q-9 43 -40.5 65t-72.5 22q-42 0 -77 -22t-44 -65zM298 577q-32 0 -54 22
t-22 53q0 32 22 54t54 22q31 0 53 -22t22 -54q0 -31 -22 -53t-53 -22z" />
    <glyph glyph-name="Eogonek" unicode="&#x118;" horiz-adv-x="568" 
d="M79 0v710h442v-138h-297v-146h237v-138h-237v-150h297v-138h-442zM419 -219q-51 0 -81 27.5t-30 72.5q0 68 68 119h145q-40 -18 -63 -41.5t-23 -46.5q0 -26 36 -26q28 0 50 16v-93q-37 -28 -102 -28z" />
    <glyph glyph-name="eogonek" unicode="&#x119;" horiz-adv-x="578" 
d="M433 -219q-51 0 -82.5 28t-31.5 71q0 63 59 118q-43 -9 -79 -9q-114 0 -189.5 72t-75.5 189q0 112 75 186.5t188 74.5q104 0 175 -64.5t71 -181.5q0 -33 -2 -47h-374q6 -49 43.5 -76.5t89.5 -27.5q88 0 129 63l102 -76l-20 -29q-73 -108 -73 -149q0 -19 13 -32t34 -13
q24 0 46 16v-85q-37 -28 -98 -28zM172 311h234q-9 43 -40.5 65t-72.5 22q-42 0 -77 -22t-44 -65z" />
    <glyph glyph-name="Ecaron" unicode="&#x11a;" horiz-adv-x="568" 
d="M79 0v710h442v-138h-297v-146h237v-138h-237v-150h297v-138h-442zM299 763l-174 72v110l174 -73l174 73v-110z" />
    <glyph glyph-name="ecaron" unicode="&#x11b;" horiz-adv-x="578" 
d="M299 -11q-114 0 -189.5 72t-75.5 189q0 112 75 186.5t188 74.5q104 0 175 -64.5t71 -181.5q0 -33 -2 -47h-374q6 -49 43.5 -76.5t89.5 -27.5q88 0 129 63l102 -76q-77 -112 -232 -112zM172 311h234q-9 43 -40.5 65t-72.5 22q-42 0 -77 -22t-44 -65zM298 548l-174 98v110
l174 -98l174 98v-110z" />
    <glyph glyph-name="Gcircumflex" unicode="&#x11c;" horiz-adv-x="763" 
d="M423 -12q-165 0 -275 105.5t-110 261.5q0 154 105.5 260.5t267.5 106.5q176 0 286 -116l-101 -100q-74 76 -185 76q-100 0 -163.5 -66t-63.5 -161q0 -98 65 -162.5t173 -64.5q100 0 149 38v123h-153v136h294v-333q-47 -50 -124.5 -77t-164.5 -27zM240 763v109l174 73
l174 -73v-109l-174 72z" />
    <glyph glyph-name="gcircumflex" unicode="&#x11d;" horiz-adv-x="617" 
d="M299 130q53 0 90 36t37 92t-37 92t-90 36t-90 -36t-37 -92t37 -92t90 -36zM283 -219q-150 0 -233 80l75 102q63 -62 156 -62q60 0 97 38t37 99v34q-21 -29 -60 -47.5t-85 -18.5q-98 0 -167 73.5t-69 178.5q0 106 69 179.5t167 73.5q47 0 85.5 -18.5t59.5 -48.5v56h137
v-461q0 -129 -74 -193.5t-195 -64.5zM310 756l174 -98v-110l-174 98l-174 -98v110z" />
    <glyph glyph-name="Gbreve" unicode="&#x11e;" horiz-adv-x="763" 
d="M423 -12q-165 0 -275 105.5t-110 261.5q0 154 105.5 260.5t267.5 106.5q176 0 286 -116l-101 -100q-74 76 -185 76q-100 0 -163.5 -66t-63.5 -161q0 -98 65 -162.5t173 -64.5q100 0 149 38v123h-153v136h294v-333q-47 -50 -124.5 -77t-164.5 -27zM414 750
q-74 0 -124 48.5t-50 126.5h80q0 -46 26.5 -70.5t67.5 -24.5t67.5 24.5t26.5 70.5h80q0 -78 -50 -126.5t-124 -48.5z" />
    <glyph glyph-name="gbreve" unicode="&#x11f;" horiz-adv-x="617" 
d="M299 130q53 0 90 36t37 92t-37 92t-90 36t-90 -36t-37 -92t37 -92t90 -36zM283 -219q-150 0 -233 80l75 102q63 -62 156 -62q60 0 97 38t37 99v34q-21 -29 -60 -47.5t-85 -18.5q-98 0 -167 73.5t-69 178.5q0 106 69 179.5t167 73.5q47 0 85.5 -18.5t59.5 -48.5v56h137
v-461q0 -129 -74 -193.5t-195 -64.5zM310 558q-74 0 -124 48t-50 126v18h80v-18q0 -45 27 -70t67 -25t67 25t27 70v18h80v-18q0 -78 -50 -126t-124 -48z" />
    <glyph glyph-name="Gdotaccent" unicode="&#x120;" horiz-adv-x="763" 
d="M423 -12q-165 0 -275 105.5t-110 261.5q0 154 105.5 260.5t267.5 106.5q176 0 286 -116l-101 -100q-74 76 -185 76q-100 0 -163.5 -66t-63.5 -161q0 -98 65 -162.5t173 -64.5q100 0 149 38v123h-153v136h294v-333q-47 -50 -124.5 -77t-164.5 -27zM414 772q-32 0 -54 22
t-22 53q0 32 22 54t54 22q31 0 53 -22t22 -54q0 -31 -22 -53t-53 -22z" />
    <glyph glyph-name="gdotaccent" unicode="&#x121;" horiz-adv-x="617" 
d="M299 130q53 0 90 36t37 92t-37 92t-90 36t-90 -36t-37 -92t37 -92t90 -36zM283 -219q-150 0 -233 80l75 102q63 -62 156 -62q60 0 97 38t37 99v34q-21 -29 -60 -47.5t-85 -18.5q-98 0 -167 73.5t-69 178.5q0 106 69 179.5t167 73.5q47 0 85.5 -18.5t59.5 -48.5v56h137
v-461q0 -129 -74 -193.5t-195 -64.5zM310 577q-32 0 -54 22t-22 53q0 32 22 54t54 22q31 0 53 -22t22 -54q0 -31 -22 -53t-53 -22z" />
    <glyph glyph-name="uni0122" unicode="&#x122;" horiz-adv-x="763" 
d="M423 -12q-165 0 -275 105.5t-110 261.5q0 154 105.5 260.5t267.5 106.5q176 0 286 -116l-101 -100q-74 76 -185 76q-100 0 -163.5 -66t-63.5 -161q0 -98 65 -162.5t173 -64.5q100 0 149 38v123h-153v136h294v-333q-47 -50 -124.5 -77t-164.5 -27zM350 -306l42 94
q-45 21 -45 69q0 31 21.5 53t53.5 22q31 0 53 -22t22 -53q0 -27 -15 -48l-72 -115h-60z" />
    <glyph glyph-name="uni0123" unicode="&#x123;" horiz-adv-x="617" 
d="M299 130q53 0 90 36t37 92t-37 92t-90 36t-90 -36t-37 -92t37 -92t90 -36zM283 -219q-150 0 -233 80l75 102q63 -62 156 -62q60 0 97 38t37 99v34q-21 -29 -60 -47.5t-85 -18.5q-98 0 -167 73.5t-69 178.5q0 106 69 179.5t167 73.5q47 0 85.5 -18.5t59.5 -48.5v56h137
v-461q0 -129 -74 -193.5t-195 -64.5zM310 577q-31 0 -53 22t-22 53q0 26 15 48l72 115h60l-42 -94q45 -21 45 -69q0 -31 -21.5 -53t-53.5 -22z" />
    <glyph glyph-name="Hcircumflex" unicode="&#x124;" horiz-adv-x="756" 
d="M79 0v710h145v-283h308v283h145v-710h-145v289h-308v-289h-145zM204 763v109l174 73l174 -73v-109l-174 72z" />
    <glyph glyph-name="hcircumflex" unicode="&#x125;" horiz-adv-x="599" 
d="M203 0h-137v750h137v-307q46 68 143 68q90 0 141.5 -59.5t51.5 -158.5v-293h-137v270q0 55 -23 85.5t-65 30.5q-50 0 -80.5 -36t-30.5 -106v-244zM152 763v109l174 73l174 -73v-109l-174 72z" />
    <glyph glyph-name="Hbar" unicode="&#x126;" horiz-adv-x="787" 
d="M95 0v710h145v-283h308v283h145v-710h-145v289h-308v-289h-145zM23 519v100h742v-100h-742z" />
    <glyph glyph-name="hbar" unicode="&#x127;" horiz-adv-x="599" 
d="M203 0h-137v750h137v-307q46 68 143 68q90 0 141.5 -59.5t51.5 -158.5v-293h-137v270q0 55 -23 85.5t-65 30.5q-50 0 -80.5 -36t-30.5 -106v-244zM343 567h-339v90h339v-90z" />
    <glyph glyph-name="Itilde" unicode="&#x128;" horiz-adv-x="303" 
d="M79 0v710h145v-710h-145zM-37 778l4 26q8 52 41.5 82t76.5 30q34 0 77 -23t55 -23q19 0 28.5 11t15.5 36h79l-4 -26q-8 -52 -41.5 -82t-76.5 -30q-34 0 -77 23t-55 23q-19 0 -28.5 -11t-15.5 -36h-79z" />
    <glyph glyph-name="itilde" unicode="&#x129;" horiz-adv-x="269" 
d="M66 0v500h137v-500h-137zM-54 571l4 26q8 52 41.5 82t76.5 30q34 0 77 -23t55 -23q19 0 28.5 11t15.5 36h79l-4 -26q-8 -52 -41.5 -82t-76.5 -30q-34 0 -77 23t-55 23q-19 0 -28.5 -11t-15.5 -36h-79z" />
    <glyph glyph-name="Imacron" unicode="&#x12a;" horiz-adv-x="303" 
d="M79 0v710h145v-710h-145zM-19 791v96h342v-96h-342z" />
    <glyph glyph-name="imacron" unicode="&#x12b;" horiz-adv-x="269" 
d="M66 0v500h137v-500h-137zM-36 613v97h342v-97h-342z" />
    <glyph glyph-name="Ibreve" unicode="&#x12c;" horiz-adv-x="303" 
d="M79 0v710h145v-710h-145zM152 750q-74 0 -124 48.5t-50 126.5h80q0 -46 26.5 -70.5t67.5 -24.5t67.5 24.5t26.5 70.5h80q0 -78 -50 -126.5t-124 -48.5z" />
    <glyph glyph-name="ibreve" unicode="&#x12d;" horiz-adv-x="269" 
d="M66 0v500h137v-500h-137zM135 558q-74 0 -124 48t-50 126v18h80v-18q0 -45 27 -70t67 -25t67 25t27 70v18h80v-18q0 -78 -50 -126t-124 -48z" />
    <glyph glyph-name="Iogonek" unicode="&#x12e;" horiz-adv-x="303" 
d="M79 0v710h145v-710h-145zM122 -219q-51 0 -81 27.5t-30 72.5q0 68 68 119h145q-40 -18 -63 -41.5t-23 -46.5q0 -26 36 -26q28 0 50 16v-93q-37 -28 -102 -28z" />
    <glyph glyph-name="iogonek" unicode="&#x12f;" horiz-adv-x="269" 
d="M134 582q-35 0 -61 25.5t-26 61.5t26 61.5t61 25.5q37 0 62.5 -25.5t25.5 -61.5t-25.5 -61.5t-62.5 -25.5zM66 0v500h137v-500h-137zM105 -219q-50 0 -78.5 27.5t-28.5 72.5q0 68 68 119h137q-86 -39 -86 -92q0 -30 36 -30q28 0 50 16v-85q-37 -28 -98 -28z" />
    <glyph glyph-name="Idotaccent" unicode="&#x130;" horiz-adv-x="303" 
d="M79 0v710h145v-710h-145zM152 772q-32 0 -54 22t-22 53q0 32 22 54t54 22q31 0 53 -22t22 -54q0 -31 -22 -53t-53 -22z" />
    <glyph glyph-name="dotlessi" unicode="&#x131;" horiz-adv-x="269" 
d="M66 0v500h137v-500h-137z" />
    <glyph glyph-name="Jcircumflex" unicode="&#x134;" horiz-adv-x="547" 
d="M246 -12q-96 0 -161 55.5t-65 160.5h143q0 -39 23.5 -60t59.5 -21t59.5 20.5t23.5 60.5v506h144v-516q0 -102 -65 -154t-162 -52zM226 763v109l174 73l174 -73v-109l-174 72z" />
    <glyph glyph-name="jcircumflex" unicode="&#x135;" horiz-adv-x="277" 
d="M211 500v-538q0 -88 -53 -134.5t-133 -46.5q-36 0 -56 4v117q14 -2 26 -2q79 0 79 84v516h137zM144 756l174 -98v-110l-174 98l-174 -98v110z" />
    <glyph glyph-name="uni0136" unicode="&#x136;" horiz-adv-x="694" 
d="M531 0l-308 322v-322h-144v710h144v-301l256 301h179l-292 -341l353 -369h-188zM304 -306l42 94q-45 21 -45 69q0 31 21.5 53t53.5 22q31 0 53 -22t22 -53q0 -27 -15 -48l-72 -115h-60z" />
    <glyph glyph-name="uni0137" unicode="&#x137;" horiz-adv-x="556" 
d="M407 0l-204 230v-230h-137v750h137v-434l162 184h165l-198 -225l244 -275h-169zM233 -306l42 94q-45 21 -45 69q0 31 21.5 53t53.5 22q31 0 53 -22t22 -53q0 -27 -15 -48l-72 -115h-60z" />
    <glyph glyph-name="Lacute" unicode="&#x139;" horiz-adv-x="551" 
d="M79 0v710h145v-572h304v-138h-449zM110 770l72 157h154l-123 -157h-103z" />
    <glyph glyph-name="lacute" unicode="&#x13a;" horiz-adv-x="269" 
d="M66 0v750h137v-750h-137zM89 810l106 190h159l-163 -190h-102z" />
    <glyph glyph-name="uni013B" unicode="&#x13b;" horiz-adv-x="551" 
d="M79 0v710h145v-572h304v-138h-449zM231 -306l42 94q-45 21 -45 69q0 31 21.5 53t53.5 22q31 0 53 -22t22 -53q0 -27 -15 -48l-72 -115h-60z" />
    <glyph glyph-name="uni013C" unicode="&#x13c;" horiz-adv-x="269" 
d="M66 0v750h137v-750h-137zM63 -306l42 94q-45 21 -45 69q0 31 21.5 53t53.5 22q31 0 53 -22t22 -53q0 -27 -15 -48l-72 -115h-60z" />
    <glyph glyph-name="Lcaron" unicode="&#x13d;" horiz-adv-x="553" 
d="M79 0v710h145v-572h304v-138h-449zM294 589l21 161h137l-65 -161h-93z" />
    <glyph glyph-name="lcaron" unicode="&#x13e;" horiz-adv-x="269" 
d="M66 0v750h137v-750h-137zM223 589l21 161h137l-65 -161h-93z" />
    <glyph glyph-name="Ldot" unicode="&#x13f;" horiz-adv-x="558" 
d="M79 0v710h145v-572h304v-138h-449zM423 349q-32 0 -54 22t-22 53q0 32 22 54t54 22q31 0 53 -22t22 -54q0 -31 -22 -53t-53 -22z" />
    <glyph glyph-name="ldot" unicode="&#x140;" horiz-adv-x="404" 
d="M66 0v750h137v-750h-137zM337 298q-32 0 -54 22t-22 53q0 32 22 54t54 22q31 0 53 -22t22 -54q0 -31 -22 -53t-53 -22z" />
    <glyph glyph-name="Lslash" unicode="&#x141;" horiz-adv-x="580" 
d="M107 0v710h145v-572h304v-138h-449zM388 419l-352 -206v115l352 207v-116z" />
    <glyph glyph-name="lslash" unicode="&#x142;" horiz-adv-x="350" 
d="M107 0v750h137v-750h-137zM318 403l-285 -167v107l285 168v-108z" />
    <glyph glyph-name="Nacute" unicode="&#x143;" horiz-adv-x="792" 
d="M713 0h-125l-364 463v-463h-145v710h125l364 -463v463h145v-710zM351 770l72 157h154l-123 -157h-103z" />
    <glyph glyph-name="nacute" unicode="&#x144;" horiz-adv-x="599" 
d="M66 0v500h137v-57q46 68 143 68q90 0 141.5 -59.5t51.5 -158.5v-293h-137v270q0 55 -23 85.5t-65 30.5q-50 0 -80.5 -36t-30.5 -106v-244h-137zM256 560l106 190h159l-163 -190h-102z" />
    <glyph glyph-name="uni0145" unicode="&#x145;" horiz-adv-x="792" 
d="M713 0h-125l-364 463v-463h-145v710h125l364 -463v463h145v-710zM323 -306l42 94q-45 21 -45 69q0 31 21.5 53t53.5 22q31 0 53 -22t22 -53q0 -27 -15 -48l-72 -115h-60z" />
    <glyph glyph-name="uni0146" unicode="&#x146;" horiz-adv-x="599" 
d="M66 0v500h137v-57q46 68 143 68q90 0 141.5 -59.5t51.5 -158.5v-293h-137v270q0 55 -23 85.5t-65 30.5q-50 0 -80.5 -36t-30.5 -106v-244h-137zM230 -306l42 94q-45 21 -45 69q0 31 21.5 53t53.5 22q31 0 53 -22t22 -53q0 -27 -15 -48l-72 -115h-60z" />
    <glyph glyph-name="Ncaron" unicode="&#x147;" horiz-adv-x="792" 
d="M713 0h-125l-364 463v-463h-145v710h125l364 -463v463h145v-710zM395 763l-174 72v110l174 -73l174 73v-110z" />
    <glyph glyph-name="ncaron" unicode="&#x148;" horiz-adv-x="599" 
d="M66 0v500h137v-57q46 68 143 68q90 0 141.5 -59.5t51.5 -158.5v-293h-137v270q0 55 -23 85.5t-65 30.5q-50 0 -80.5 -36t-30.5 -106v-244h-137zM302 548l-174 98v110l174 -98l174 98v-110z" />
    <glyph glyph-name="Eng" unicode="&#x14a;" horiz-adv-x="792" 
d="M713 710v-748q0 -88 -53.5 -134.5t-137.5 -46.5q-51 0 -87 11v132q27 -8 57 -8q41 0 58.5 19t17.5 65v25l-344 438v-463h-145v710h125l364 -463v463h145z" />
    <glyph glyph-name="eng" unicode="&#x14b;" horiz-adv-x="599" 
d="M66 0v500h137v-57q46 68 143 68q90 0 141.5 -59.5t51.5 -158.5v-327q0 -88 -53.5 -134.5t-136.5 -46.5q-37 0 -65 5v121q22 -2 33 -2q45 0 65 19.5t20 64.5v277q0 55 -23 85.5t-65 30.5q-50 0 -80.5 -36t-30.5 -106v-244h-137z" />
    <glyph glyph-name="Omacron" unicode="&#x14c;" horiz-adv-x="808" 
d="M404 128q92 0 156.5 66.5t64.5 160.5t-64.5 160.5t-156.5 66.5t-156.5 -66.5t-64.5 -160.5t64.5 -160.5t156.5 -66.5zM404 -12q-152 0 -259.5 107.5t-107.5 259.5t107.5 259.5t259.5 107.5t259.5 -107.5t107.5 -259.5t-107.5 -259.5t-259.5 -107.5zM233 791v96h342v-96
h-342z" />
    <glyph glyph-name="omacron" unicode="&#x14d;" horiz-adv-x="592" 
d="M296 -11q-109 0 -186 75.5t-77 185.5q0 109 77 185t186 76t186 -76t77 -185q0 -110 -77 -185.5t-186 -75.5zM296 117q53 0 88.5 37.5t35.5 95.5t-35.5 95.5t-88.5 37.5q-54 0 -89.5 -37.5t-35.5 -95.5t35.5 -95.5t89.5 -37.5zM125 613v97h342v-97h-342z" />
    <glyph glyph-name="Obreve" unicode="&#x14e;" horiz-adv-x="808" 
d="M404 128q92 0 156.5 66.5t64.5 160.5t-64.5 160.5t-156.5 66.5t-156.5 -66.5t-64.5 -160.5t64.5 -160.5t156.5 -66.5zM404 -12q-152 0 -259.5 107.5t-107.5 259.5t107.5 259.5t259.5 107.5t259.5 -107.5t107.5 -259.5t-107.5 -259.5t-259.5 -107.5zM404 750
q-74 0 -124 48.5t-50 126.5h80q0 -46 26.5 -70.5t67.5 -24.5t67.5 24.5t26.5 70.5h80q0 -78 -50 -126.5t-124 -48.5z" />
    <glyph glyph-name="obreve" unicode="&#x14f;" horiz-adv-x="592" 
d="M296 -11q-109 0 -186 75.5t-77 185.5q0 109 77 185t186 76t186 -76t77 -185q0 -110 -77 -185.5t-186 -75.5zM296 117q53 0 88.5 37.5t35.5 95.5t-35.5 95.5t-88.5 37.5q-54 0 -89.5 -37.5t-35.5 -95.5t35.5 -95.5t89.5 -37.5zM296 558q-74 0 -124 48t-50 126v18h80v-18
q0 -45 27 -70t67 -25t67 25t27 70v18h80v-18q0 -78 -50 -126t-124 -48z" />
    <glyph glyph-name="Ohungarumlaut" unicode="&#x150;" horiz-adv-x="808" 
d="M404 128q92 0 156.5 66.5t64.5 160.5t-64.5 160.5t-156.5 66.5t-156.5 -66.5t-64.5 -160.5t64.5 -160.5t156.5 -66.5zM404 -12q-152 0 -259.5 107.5t-107.5 259.5t107.5 259.5t259.5 107.5t259.5 -107.5t107.5 -259.5t-107.5 -259.5t-259.5 -107.5zM456 770l66 157h144
l-123 -157h-87zM274 770l66 157h144l-123 -157h-87z" />
    <glyph glyph-name="ohungarumlaut" unicode="&#x151;" horiz-adv-x="592" 
d="M296 -11q-109 0 -186 75.5t-77 185.5q0 109 77 185t186 76t186 -76t77 -185q0 -110 -77 -185.5t-186 -75.5zM296 117q53 0 88.5 37.5t35.5 95.5t-35.5 95.5t-88.5 37.5q-54 0 -89.5 -37.5t-35.5 -95.5t35.5 -95.5t89.5 -37.5zM335 560l66 190h144l-123 -190h-87zM153 560
l66 190h144l-123 -190h-87z" />
    <glyph glyph-name="OE" unicode="&#x152;" horiz-adv-x="1114" 
d="M404 128q92 0 156.5 66.5t64.5 160.5t-64.5 160.5t-156.5 66.5t-156.5 -66.5t-64.5 -160.5t64.5 -160.5t156.5 -66.5zM625 0v69q-77 -81 -221 -81q-152 0 -259.5 107.5t-107.5 259.5t107.5 259.5t259.5 107.5q144 0 221 -81v69h442v-138h-297v-146h237v-138h-237v-150
h297v-138h-442z" />
    <glyph glyph-name="oe" unicode="&#x153;" horiz-adv-x="964" 
d="M685 -11q-123 0 -198 81q-76 -81 -191 -81q-109 0 -186 75.5t-77 185.5q0 109 77 185t186 76q115 0 192 -82q76 82 195 82q104 0 175 -64.5t71 -181.5q0 -33 -2 -47h-373q6 -49 43 -76.5t89 -27.5q91 0 129 63l103 -76q-36 -52 -96 -82t-137 -30zM296 117q53 0 88.5 37.5
t35.5 95.5t-35.5 95.5t-88.5 37.5q-54 0 -89.5 -37.5t-35.5 -95.5t35.5 -95.5t89.5 -37.5zM679 398q-42 0 -77 -22t-44 -65h235q-9 43 -41 65t-73 22z" />
    <glyph glyph-name="Racute" unicode="&#x154;" horiz-adv-x="656" 
d="M79 0v710h272q97 0 157.5 -60t60.5 -150q0 -140 -146 -185l255 -315h-175l-244 299h-35v-299h-145zM224 423h110q42 0 66.5 20.5t24.5 56.5t-24.5 56.5t-66.5 20.5h-110v-154zM257 770l72 157h154l-123 -157h-103z" />
    <glyph glyph-name="racute" unicode="&#x155;" horiz-adv-x="395" 
d="M66 0v500h137v-80q13 37 47.5 61.5t76.5 24.5q26 0 46 -6v-139q-33 11 -62 11q-49 0 -78.5 -35.5t-29.5 -97.5v-239h-137zM173 560l106 190h159l-163 -190h-102z" />
    <glyph glyph-name="uni0156" unicode="&#x156;" horiz-adv-x="656" 
d="M79 0v710h272q97 0 157.5 -60t60.5 -150q0 -140 -146 -185l255 -315h-175l-244 299h-35v-299h-145zM224 423h110q42 0 66.5 20.5t24.5 56.5t-24.5 56.5t-66.5 20.5h-110v-154zM291 -306l42 94q-45 21 -45 69q0 31 21.5 53t53.5 22q31 0 53 -22t22 -53q0 -27 -15 -48
l-72 -115h-60z" />
    <glyph glyph-name="uni0157" unicode="&#x157;" horiz-adv-x="395" 
d="M66 0v500h137v-80q13 37 47.5 61.5t76.5 24.5q26 0 46 -6v-139q-33 11 -62 11q-49 0 -78.5 -35.5t-29.5 -97.5v-239h-137zM62 -306l42 94q-45 21 -45 69q0 31 21.5 53t53.5 22q31 0 53 -22t22 -53q0 -27 -15 -48l-72 -115h-60z" />
    <glyph glyph-name="Rcaron" unicode="&#x158;" horiz-adv-x="656" 
d="M79 0v710h272q97 0 157.5 -60t60.5 -150q0 -140 -146 -185l255 -315h-175l-244 299h-35v-299h-145zM224 423h110q42 0 66.5 20.5t24.5 56.5t-24.5 56.5t-66.5 20.5h-110v-154zM301 763l-174 72v110l174 -73l174 73v-110z" />
    <glyph glyph-name="rcaron" unicode="&#x159;" horiz-adv-x="395" 
d="M66 0v500h137v-80q13 37 47.5 61.5t76.5 24.5q26 0 46 -6v-139q-33 11 -62 11q-49 0 -78.5 -35.5t-29.5 -97.5v-239h-137zM219 548l-174 98v110l174 -98l174 98v-110z" />
    <glyph glyph-name="Sacute" unicode="&#x15a;" horiz-adv-x="571" 
d="M286 -12q-84 0 -152.5 33.5t-106.5 93.5l111 93q26 -39 67.5 -61.5t86.5 -22.5q43 0 69 19t26 50q0 30 -23 52t-76 40l-60 21q-175 61 -175 203q0 98 67 155.5t173 57.5q136 0 224 -98l-96 -99q-51 61 -127 61q-39 0 -67 -16.5t-28 -46.5q0 -31 24.5 -49t85.5 -40l57 -21
q169 -63 169 -211q0 -95 -69.5 -154.5t-179.5 -59.5zM251 770l72 157h154l-123 -157h-103z" />
    <glyph glyph-name="sacute" unicode="&#x15b;" horiz-adv-x="459" 
d="M234 -11q-142 0 -206 96l94 80q36 -58 112 -58q23 0 39 9t16 27q0 16 -13.5 26.5t-53.5 21.5l-37 9q-69 18 -104.5 60t-33.5 100q2 68 54.5 109.5t133.5 41.5q115 0 173 -84l-90 -73q-35 44 -85 44q-20 0 -35 -9t-15 -25q0 -30 49 -43l47 -14q145 -39 145 -155
q0 -71 -54 -117t-136 -46zM185 560l106 190h159l-163 -190h-102z" />
    <glyph glyph-name="Scircumflex" unicode="&#x15c;" horiz-adv-x="571" 
d="M286 -12q-84 0 -152.5 33.5t-106.5 93.5l111 93q26 -39 67.5 -61.5t86.5 -22.5q43 0 69 19t26 50q0 30 -23 52t-76 40l-60 21q-175 61 -175 203q0 98 67 155.5t173 57.5q136 0 224 -98l-96 -99q-51 61 -127 61q-39 0 -67 -16.5t-28 -46.5q0 -31 24.5 -49t85.5 -40l57 -21
q169 -63 169 -211q0 -95 -69.5 -154.5t-179.5 -59.5zM121 763v109l174 73l174 -73v-109l-174 72z" />
    <glyph glyph-name="scircumflex" unicode="&#x15d;" horiz-adv-x="459" 
d="M234 -11q-142 0 -206 96l94 80q36 -58 112 -58q23 0 39 9t16 27q0 16 -13.5 26.5t-53.5 21.5l-37 9q-69 18 -104.5 60t-33.5 100q2 68 54.5 109.5t133.5 41.5q115 0 173 -84l-90 -73q-35 44 -85 44q-20 0 -35 -9t-15 -25q0 -30 49 -43l47 -14q145 -39 145 -155
q0 -71 -54 -117t-136 -46zM231 756l174 -98v-110l-174 98l-174 -98v110z" />
    <glyph glyph-name="Scedilla" unicode="&#x15e;" horiz-adv-x="571" 
d="M286 -12q-84 0 -152.5 33.5t-106.5 93.5l111 93q26 -39 67.5 -61.5t86.5 -22.5q43 0 69 19t26 50q0 30 -23 52t-76 40l-60 21q-175 61 -175 203q0 98 67 155.5t173 57.5q136 0 224 -98l-96 -99q-51 61 -127 61q-39 0 -67 -16.5t-28 -46.5q0 -31 24.5 -49t85.5 -40l57 -21
q169 -63 169 -211q0 -95 -69.5 -154.5t-179.5 -59.5zM168 -204v63q30 -17 76 -17q62 0 62 33q0 28 -44 28q-22 0 -41 -10l-35 19l55 91h62l-31 -51q28 7 47 7q37 0 61 -21t24 -58q0 -43 -41 -71t-95 -28q-62 0 -100 15z" />
    <glyph glyph-name="scedilla" unicode="&#x15f;" horiz-adv-x="459" 
d="M234 -11q-142 0 -206 96l94 80q36 -58 112 -58q23 0 39 9t16 27q0 16 -13.5 26.5t-53.5 21.5l-37 9q-69 18 -104.5 60t-33.5 100q2 68 54.5 109.5t133.5 41.5q115 0 173 -84l-90 -73q-35 44 -85 44q-20 0 -35 -9t-15 -25q0 -30 49 -43l47 -14q145 -39 145 -155
q0 -71 -54 -117t-136 -46zM110 -204v63q30 -17 76 -17q62 0 62 33q0 28 -44 28q-22 0 -41 -10l-35 19l55 91h62l-31 -51q26 7 47 7q37 0 61 -21t24 -58q0 -43 -41 -71t-95 -28q-62 0 -100 15z" />
    <glyph glyph-name="Scaron" unicode="&#x160;" horiz-adv-x="571" 
d="M286 -12q-84 0 -152.5 33.5t-106.5 93.5l111 93q26 -39 67.5 -61.5t86.5 -22.5q43 0 69 19t26 50q0 30 -23 52t-76 40l-60 21q-175 61 -175 203q0 98 67 155.5t173 57.5q136 0 224 -98l-96 -99q-51 61 -127 61q-39 0 -67 -16.5t-28 -46.5q0 -31 24.5 -49t85.5 -40l57 -21
q169 -63 169 -211q0 -95 -69.5 -154.5t-179.5 -59.5zM295 763l-174 72v110l174 -73l174 73v-110z" />
    <glyph glyph-name="scaron" unicode="&#x161;" horiz-adv-x="459" 
d="M234 -11q-142 0 -206 96l94 80q36 -58 112 -58q23 0 39 9t16 27q0 16 -13.5 26.5t-53.5 21.5l-37 9q-69 18 -104.5 60t-33.5 100q2 68 54.5 109.5t133.5 41.5q115 0 173 -84l-90 -73q-35 44 -85 44q-20 0 -35 -9t-15 -25q0 -30 49 -43l47 -14q145 -39 145 -155
q0 -71 -54 -117t-136 -46zM231 548l-174 98v110l174 -98l174 98v-110z" />
    <glyph glyph-name="uni0162" unicode="&#x162;" horiz-adv-x="568" 
d="M210 0v572h-189v138h526v-138h-191v-572h-146zM212 -306l42 94q-45 21 -45 69q0 31 21.5 53t53.5 22q31 0 53 -22t22 -53q0 -27 -15 -48l-72 -115h-60z" />
    <glyph glyph-name="uni0163" unicode="&#x163;" horiz-adv-x="427" 
d="M308 -6q-84 0 -137.5 46.5t-53.5 134.5v205h-101v120h101v139h137v-139h141v-120h-141v-178q0 -46 20 -65.5t65 -19.5q32 0 56 9v-121q-36 -11 -87 -11zM195 -306l42 94q-45 21 -45 69q0 31 21.5 53t53.5 22q31 0 53 -22t22 -53q0 -27 -15 -48l-72 -115h-60z" />
    <glyph glyph-name="Tcaron" unicode="&#x164;" horiz-adv-x="568" 
d="M210 0v572h-189v138h526v-138h-191v-572h-146zM284 763l-174 72v110l174 -73l174 73v-110z" />
    <glyph glyph-name="tcaron" unicode="&#x165;" horiz-adv-x="427" 
d="M308 -6q-84 0 -137.5 46.5t-53.5 134.5v205h-101v120h101v139h137v-139h141v-120h-141v-178q0 -46 20 -65.5t65 -19.5q32 0 56 9v-121q-36 -11 -87 -11zM274 549l21 161h137l-65 -161h-93z" />
    <glyph glyph-name="Tbar" unicode="&#x166;" horiz-adv-x="592" 
d="M222 0v572h-189v138h526v-138h-191v-572h-146zM83 295v126h425v-126h-425z" />
    <glyph glyph-name="tbar" unicode="&#x167;" horiz-adv-x="438" 
d="M315 -6q-84 0 -137.5 46.5t-53.5 134.5v205h-101v120h101v139h137v-139h141v-120h-141v-178q0 -46 20 -65.5t65 -19.5q32 0 56 9v-121q-36 -11 -87 -11zM23 220v90h379v-90h-379z" />
    <glyph glyph-name="Utilde" unicode="&#x168;" horiz-adv-x="720" 
d="M360 -12q-129 0 -209 80t-80 212v430h145v-432q0 -70 39 -110t105 -40t105 40t39 110v432h145v-430q0 -131 -81 -211.5t-208 -80.5zM171 778l4 26q8 52 41.5 82t76.5 30q34 0 77 -23t55 -23q19 0 28.5 11t15.5 36h79l-4 -26q-8 -52 -41.5 -82t-76.5 -30q-34 0 -77 23
t-55 23q-19 0 -28.5 -11t-15.5 -36h-79z" />
    <glyph glyph-name="utilde" unicode="&#x169;" horiz-adv-x="588" 
d="M248 -11q-89 0 -138.5 60t-49.5 161v290h137v-267q0 -119 85 -119q48 0 75.5 36t27.5 106v244h137v-500h-137v57q-46 -68 -137 -68zM102 571l4 26q8 52 41.5 82t76.5 30q34 0 77 -23t55 -23q19 0 28.5 11t15.5 36h79l-4 -26q-8 -52 -41.5 -82t-76.5 -30q-34 0 -77 23
t-55 23q-19 0 -28.5 -11t-15.5 -36h-79z" />
    <glyph glyph-name="Umacron" unicode="&#x16a;" horiz-adv-x="720" 
d="M360 -12q-129 0 -209 80t-80 212v430h145v-432q0 -70 39 -110t105 -40t105 40t39 110v432h145v-430q0 -131 -81 -211.5t-208 -80.5zM189 791v96h342v-96h-342z" />
    <glyph glyph-name="umacron" unicode="&#x16b;" horiz-adv-x="588" 
d="M248 -11q-89 0 -138.5 60t-49.5 161v290h137v-267q0 -119 85 -119q48 0 75.5 36t27.5 106v244h137v-500h-137v57q-46 -68 -137 -68zM120 613v97h342v-97h-342z" />
    <glyph glyph-name="Ubreve" unicode="&#x16c;" horiz-adv-x="720" 
d="M360 -12q-129 0 -209 80t-80 212v430h145v-432q0 -70 39 -110t105 -40t105 40t39 110v432h145v-430q0 -131 -81 -211.5t-208 -80.5zM360 750q-74 0 -124 48.5t-50 126.5h80q0 -46 26.5 -70.5t67.5 -24.5t67.5 24.5t26.5 70.5h80q0 -78 -50 -126.5t-124 -48.5z" />
    <glyph glyph-name="ubreve" unicode="&#x16d;" horiz-adv-x="588" 
d="M248 -11q-89 0 -138.5 60t-49.5 161v290h137v-267q0 -119 85 -119q48 0 75.5 36t27.5 106v244h137v-500h-137v57q-46 -68 -137 -68zM291 558q-74 0 -124 48t-50 126v18h80v-18q0 -45 27 -70t67 -25t67 25t27 70v18h80v-18q0 -78 -50 -126t-124 -48z" />
    <glyph glyph-name="Uring" unicode="&#x16e;" horiz-adv-x="720" 
d="M360 -12q-129 0 -209 80t-80 212v430h145v-432q0 -70 39 -110t105 -40t105 40t39 110v432h145v-430q0 -131 -81 -211.5t-208 -80.5zM361 753q-50 0 -86 35.5t-36 84.5t36 84.5t86 35.5t86 -35.5t36 -84.5t-36 -84.5t-86 -35.5zM361 815q25 0 42 17t17 41t-17 41t-42 17
t-42 -17t-17 -41t17 -41t42 -17z" />
    <glyph glyph-name="uring" unicode="&#x16f;" horiz-adv-x="588" 
d="M248 -11q-89 0 -138.5 60t-49.5 161v290h137v-267q0 -119 85 -119q48 0 75.5 36t27.5 106v244h137v-500h-137v57q-46 -68 -137 -68zM292 543q-50 0 -86 35.5t-36 84.5t36 84.5t86 35.5t86 -35.5t36 -84.5t-36 -84.5t-86 -35.5zM292 605q25 0 42 17t17 41t-17 41t-42 17
t-42 -17t-17 -41t17 -41t42 -17z" />
    <glyph glyph-name="Uhungarumlaut" unicode="&#x170;" horiz-adv-x="720" 
d="M360 -12q-129 0 -209 80t-80 212v430h145v-432q0 -70 39 -110t105 -40t105 40t39 110v432h145v-430q0 -131 -81 -211.5t-208 -80.5zM411 770l66 157h144l-123 -157h-87zM229 770l66 157h144l-123 -157h-87z" />
    <glyph glyph-name="uhungarumlaut" unicode="&#x171;" horiz-adv-x="588" 
d="M248 -11q-89 0 -138.5 60t-49.5 161v290h137v-267q0 -119 85 -119q48 0 75.5 36t27.5 106v244h137v-500h-137v57q-46 -68 -137 -68zM330 560l66 190h144l-123 -190h-87zM148 560l66 190h144l-123 -190h-87z" />
    <glyph glyph-name="Uogonek" unicode="&#x172;" horiz-adv-x="720" 
d="M413 -219q-50 0 -80 27.5t-30 72.5q0 58 49 107q-127 2 -204 82.5t-77 209.5v430h145v-432q0 -70 39 -110t105 -40t105 40t39 110v432h145v-430q0 -147 -101 -231q-11 -10 -28 -24t-25 -21l-20 -17.5t-17.5 -16.5t-12 -14t-9.5 -14t-5 -12.5t-2 -13.5q0 -14 10.5 -22
t25.5 -8q28 0 50 16v-93q-37 -28 -102 -28z" />
    <glyph glyph-name="uogonek" unicode="&#x173;" horiz-adv-x="588" 
d="M248 -11q-89 0 -138.5 60t-49.5 161v290h137v-267q0 -119 85 -119q48 0 75.5 36t27.5 106v244h137v-500h-137v57q-46 -68 -137 -68zM424 -219q-50 0 -78.5 27.5t-28.5 72.5q0 68 68 119h137q-86 -39 -86 -92q0 -30 36 -30q28 0 50 16v-85q-37 -28 -98 -28z" />
    <glyph glyph-name="Wcircumflex" unicode="&#x174;" horiz-adv-x="961" 
d="M637 0l-156 377l-156 -377h-136l-171 710h154l108 -472l201 484l201 -484l108 472h154l-171 -710h-136zM307 763v109l174 73l174 -73v-109l-174 72z" />
    <glyph glyph-name="wcircumflex" unicode="&#x175;" horiz-adv-x="800" 
d="M494 0l-94 284l-93 -284h-136l-166 500h146l95 -320l101 320h105l102 -320l94 320h147l-165 -500h-136zM401 756l174 -98v-110l-174 98l-174 -98v110z" />
    <glyph glyph-name="Ycircumflex" unicode="&#x176;" horiz-adv-x="690" 
d="M272 0v299l-262 411h168l166 -269l167 269h169l-263 -412v-298h-145zM171 763v109l174 73l174 -73v-109l-174 72z" />
    <glyph glyph-name="ycircumflex" unicode="&#x177;" horiz-adv-x="570" 
d="M256 -209h-149l105 237l-210 472h150l134 -324l133 324h151zM288 756l174 -98v-110l-174 98l-174 -98v110z" />
    <glyph glyph-name="Ydieresis" unicode="&#x178;" horiz-adv-x="690" 
d="M272 0v299l-262 411h168l166 -269l167 269h169l-263 -412v-298h-145zM228 772q-32 0 -54 22t-22 53q0 32 22 54t54 22q31 0 53 -22t22 -54q0 -31 -22 -53t-53 -22zM463 772q-32 0 -54 22t-22 53q0 32 22 54t54 22q31 0 53 -22t22 -54q0 -31 -22 -53t-53 -22z" />
    <glyph glyph-name="Zacute" unicode="&#x179;" horiz-adv-x="618" 
d="M38 0v99l339 473h-333v138h529v-99l-341 -473h348v-138h-542zM266 770l72 157h154l-123 -157h-103z" />
    <glyph glyph-name="zacute" unicode="&#x17a;" horiz-adv-x="498" 
d="M41 0v107l234 269h-231v124h408v-108l-234 -268h242v-124h-419zM202 560l106 190h159l-163 -190h-102z" />
    <glyph glyph-name="Zdotaccent" unicode="&#x17b;" horiz-adv-x="618" 
d="M38 0v99l339 473h-333v138h529v-99l-341 -473h348v-138h-542zM310 772q-32 0 -54 22t-22 53q0 32 22 54t54 22q31 0 53 -22t22 -54q0 -31 -22 -53t-53 -22z" />
    <glyph glyph-name="zdotaccent" unicode="&#x17c;" horiz-adv-x="498" 
d="M41 0v107l234 269h-231v124h408v-108l-234 -268h242v-124h-419zM248 577q-32 0 -54 22t-22 53q0 32 22 54t54 22q31 0 53 -22t22 -54q0 -31 -22 -53t-53 -22z" />
    <glyph glyph-name="Zcaron" unicode="&#x17d;" horiz-adv-x="618" 
d="M38 0v99l339 473h-333v138h529v-99l-341 -473h348v-138h-542zM310 763l-174 72v110l174 -73l174 73v-110z" />
    <glyph glyph-name="zcaron" unicode="&#x17e;" horiz-adv-x="498" 
d="M41 0v107l234 269h-231v124h408v-108l-234 -268h242v-124h-419zM248 548l-174 98v110l174 -98l174 98v-110z" />
    <glyph glyph-name="uni018F" unicode="&#x18f;" horiz-adv-x="804" 
d="M400 -12q-155 0 -261 107t-106 260v62h579q-21 74 -79.5 119.5t-137.5 45.5q-115 0 -185 -80l-97 98q114 122 287 122q151 0 259 -106.5t108 -260.5q0 -153 -107 -260t-260 -107zM400 128q77 0 134 45t78 116h-425q14 -70 74 -115.5t139 -45.5z" />
    <glyph glyph-name="uni0218" unicode="&#x218;" horiz-adv-x="571" 
d="M286 -12q-84 0 -152.5 33.5t-106.5 93.5l111 93q26 -39 67.5 -61.5t86.5 -22.5q43 0 69 19t26 50q0 30 -23 52t-76 40l-60 21q-175 61 -175 203q0 98 67 155.5t173 57.5q136 0 224 -98l-96 -99q-51 61 -127 61q-39 0 -67 -16.5t-28 -46.5q0 -31 24.5 -49t85.5 -40l57 -21
q169 -63 169 -211q0 -95 -69.5 -154.5t-179.5 -59.5zM214 -306l42 94q-45 21 -45 69q0 31 21.5 53t53.5 22q31 0 53 -22t22 -53q0 -27 -15 -48l-72 -115h-60z" />
    <glyph glyph-name="uni0219" unicode="&#x219;" horiz-adv-x="459" 
d="M234 -11q-142 0 -206 96l94 80q36 -58 112 -58q23 0 39 9t16 27q0 16 -13.5 26.5t-53.5 21.5l-37 9q-69 18 -104.5 60t-33.5 100q2 68 54.5 109.5t133.5 41.5q115 0 173 -84l-90 -73q-35 44 -85 44q-20 0 -35 -9t-15 -25q0 -30 49 -43l47 -14q145 -39 145 -155
q0 -71 -54 -117t-136 -46zM152 -306l42 94q-45 21 -45 69q0 31 21.5 53t53.5 22q31 0 53 -22t22 -53q0 -27 -15 -48l-72 -115h-60z" />
    <glyph glyph-name="uni021A" unicode="&#x21a;" horiz-adv-x="568" 
d="M210 0v572h-189v138h526v-138h-191v-572h-146zM212 -306l42 94q-45 21 -45 69q0 31 21.5 53t53.5 22q31 0 53 -22t22 -53q0 -27 -15 -48l-72 -115h-60z" />
    <glyph glyph-name="uni021B" unicode="&#x21b;" horiz-adv-x="427" 
d="M308 -6q-84 0 -137.5 46.5t-53.5 134.5v205h-101v120h101v139h137v-139h141v-120h-141v-178q0 -46 20 -65.5t65 -19.5q32 0 56 9v-121q-36 -11 -87 -11zM195 -306l42 94q-45 21 -45 69q0 31 21.5 53t53.5 22q31 0 53 -22t22 -53q0 -27 -15 -48l-72 -115h-60z" />
    <glyph glyph-name="uni0232" unicode="&#x232;" horiz-adv-x="690" 
d="M272 0v299l-262 411h168l166 -269l167 269h169l-263 -412v-298h-145zM174 791v96h342v-96h-342z" />
    <glyph glyph-name="uni0233" unicode="&#x233;" horiz-adv-x="570" 
d="M256 -209h-149l105 237l-210 472h150l134 -324l133 324h151zM117 613v97h342v-97h-342z" />
    <glyph glyph-name="uni0237" unicode="&#x237;" horiz-adv-x="277" 
d="M211 500v-538q0 -88 -53 -134.5t-133 -46.5q-36 0 -56 4v117q14 -2 26 -2q79 0 79 84v516h137z" />
    <glyph glyph-name="uni0259" unicode="&#x259;" horiz-adv-x="576" 
d="M288 -11q-109 0 -182.5 67t-73.5 179q0 33 2 47h374q-6 48 -42.5 76t-81.5 28q-77 0 -118 -63l-102 76q79 112 220 112q113 0 185 -72t72 -189q0 -112 -70.5 -186.5t-182.5 -74.5zM287 102q39 0 73 22.5t43 64.5h-234q9 -43 41 -65t77 -22z" />
    <glyph glyph-name="uni02BB" unicode="&#x2bb;" horiz-adv-x="275" 
d="M49 530l114 180h79l-72 -152q25 -10 42.5 -35.5t17.5 -56.5q0 -42 -29 -71t-71 -29t-71 29t-29 71q0 33 19 64z" />
    <glyph glyph-name="uni02BC" unicode="&#x2bc;" horiz-adv-x="280" 
d="M236 558l-112 -180h-81l74 152q-25 10 -42.5 35.5t-17.5 56.5q0 42 29 71t71 29t71 -29t29 -71q0 -32 -21 -64z" />
    <glyph glyph-name="circumflex" unicode="&#x2c6;" 
d="M0 756l174 -98v-110l-174 98l-174 -98v110z" />
    <glyph glyph-name="caron" unicode="&#x2c7;" 
d="M0 548l-174 98v110l174 -98l174 98v-110z" />
    <glyph glyph-name="breve" unicode="&#x2d8;" 
d="M0 558q-74 0 -124 48t-50 126v18h80v-18q0 -45 27 -70t67 -25t67 25t27 70v18h80v-18q0 -78 -50 -126t-124 -48z" />
    <glyph glyph-name="dotaccent" unicode="&#x2d9;" 
d="M0 577q-32 0 -54 22t-22 53q0 32 22 54t54 22q31 0 53 -22t22 -54q0 -31 -22 -53t-53 -22z" />
    <glyph glyph-name="ring" unicode="&#x2da;" 
d="M1 543q-50 0 -86 35.5t-36 84.5t36 84.5t86 35.5t86 -35.5t36 -84.5t-36 -84.5t-86 -35.5zM1 605q25 0 42 17t17 41t-17 41t-42 17t-42 -17t-17 -41t17 -41t42 -17z" />
    <glyph glyph-name="ogonek" unicode="&#x2db;" 
d="M4 -219q-50 0 -78.5 27.5t-28.5 72.5q0 68 68 119h137q-86 -39 -86 -92q0 -30 36 -30q28 0 50 16v-85q-37 -28 -98 -28z" />
    <glyph glyph-name="tilde" unicode="&#x2dc;" 
d="M-189 571l4 26q8 52 41.5 82t76.5 30q34 0 77 -23t55 -23q19 0 28.5 11t15.5 36h79l-4 -26q-8 -52 -41.5 -82t-76.5 -30q-34 0 -77 23t-55 23q-19 0 -28.5 -11t-15.5 -36h-79z" />
    <glyph glyph-name="hungarumlaut" unicode="&#x2dd;" 
d="M-14 560l66 190h144l-123 -190h-87zM-196 560l66 190h144l-123 -190h-87z" />
    <glyph glyph-name="uni0401" unicode="&#x401;" horiz-adv-x="568" 
d="M79 0v710h442v-138h-297v-146h237v-138h-237v-150h297v-138h-442zM182 772q-32 0 -54 22t-22 53q0 32 22 54t54 22q31 0 53 -22t22 -54q0 -31 -22 -53t-53 -22zM417 772q-32 0 -54 22t-22 53q0 32 22 54t54 22q31 0 53 -22t22 -54q0 -31 -22 -53t-53 -22z" />
    <glyph glyph-name="uni0402" unicode="&#x402;" horiz-adv-x="772" 
d="M515 447q104 0 165 -64.5t61 -167.5q0 -111 -67.5 -169t-162.5 -58q-29 0 -78 7v130q31 -4 66 -4q46 0 72.5 24t26.5 70q0 43 -29 68.5t-82 25.5q-64 0 -105 -40.5t-41 -108.5v-160h-145v572h-175v138h534v-138h-214v-197q59 72 174 72z" />
    <glyph glyph-name="uni0403" unicode="&#x403;" horiz-adv-x="521" 
d="M499 710v-138h-274v-572h-146v710h420zM246 770l72 157h154l-123 -157h-103z" />
    <glyph glyph-name="uni0404" unicode="&#x404;" horiz-adv-x="757" 
d="M404 -14q-152 0 -259.5 107.5t-107.5 259.5t107.5 259.5t259.5 107.5q106 0 194 -51.5t134 -137.5l-126 -70q-71 120 -202 120q-75 0 -133 -45.5t-79 -116.5h302v-128h-303q21 -72 79 -118.5t134 -46.5q131 0 202 119l126 -69q-47 -87 -134 -138.5t-194 -51.5z" />
    <glyph glyph-name="uni0405" unicode="&#x405;" horiz-adv-x="571" 
d="M286 -12q-84 0 -152.5 33.5t-106.5 93.5l111 93q26 -39 67.5 -61.5t86.5 -22.5q43 0 69 19t26 50q0 30 -23 52t-76 40l-60 21q-175 61 -175 203q0 98 67 155.5t173 57.5q136 0 224 -98l-96 -99q-51 61 -127 61q-39 0 -67 -16.5t-28 -46.5q0 -31 24.5 -49t85.5 -40l57 -21
q169 -63 169 -211q0 -95 -69.5 -154.5t-179.5 -59.5z" />
    <glyph glyph-name="uni0406" unicode="&#x406;" horiz-adv-x="303" 
d="M79 0v710h145v-710h-145z" />
    <glyph glyph-name="uni0407" unicode="&#x407;" horiz-adv-x="303" 
d="M79 0v710h145v-710h-145zM55 787q-32 0 -54 22t-22 53q0 32 22 54t54 22q31 0 53 -22t22 -54q0 -31 -22 -53t-53 -22zM244 787q-31 0 -53 22t-22 53q0 32 22 54t53 22q32 0 54 -22t22 -54q0 -31 -22 -53t-54 -22z" />
    <glyph glyph-name="uni0408" unicode="&#x408;" horiz-adv-x="547" 
d="M246 -12q-96 0 -161 55.5t-65 160.5h143q0 -39 23.5 -60t59.5 -21t59.5 20.5t23.5 60.5v506h144v-516q0 -102 -65 -154t-162 -52z" />
    <glyph glyph-name="uni0409" unicode="&#x409;" horiz-adv-x="1044" 
d="M873 215q0 74 -103 74h-114v-153h114q103 0 103 79zM144 710h512v-283h116q110 0 176.5 -58.5t66.5 -150.5q0 -93 -69 -155.5t-174 -62.5h-262v572h-221v-340q0 -120 -52.5 -182t-148.5 -62q-35 0 -68 5v134q16 -3 48 -3q39 0 57.5 26.5t18.5 98.5v461z" />
    <glyph glyph-name="uni040A" unicode="&#x40a;" horiz-adv-x="1045" 
d="M79 0v710h146v-283h295v283h145v-283h108q110 0 176.5 -58.5t66.5 -150.5q0 -93 -69 -155.5t-174 -62.5h-253v289h-295v-289h-146zM771 289h-106v-153h106q103 0 103 79q0 74 -103 74z" />
    <glyph glyph-name="uni040B" unicode="&#x40b;" horiz-adv-x="781" 
d="M196 572h-175v138h534v-138h-214v-197q59 72 172 72q99 0 162.5 -64t63.5 -168v-215h-146v178q0 67 -31 99t-85 32q-55 0 -95.5 -41t-40.5 -116v-152h-145v572z" />
    <glyph glyph-name="uni040C" unicode="&#x40c;" horiz-adv-x="694" 
d="M531 0l-308 322v-322h-144v710h144v-301l256 301h179l-292 -341l353 -369h-188zM306 770l72 157h154l-123 -157h-103z" />
    <glyph glyph-name="uni040E" unicode="&#x40e;" horiz-adv-x="724" 
d="M132 -5v134q25 -4 64 -4q34 0 57 9.5t43 39.5l-276 536h166l193 -374l187 374h165l-272 -537q-51 -98 -107 -141.5t-135 -43.5q-47 0 -85 7zM377 750q-74 0 -124 48.5t-50 126.5h90q0 -43 23 -68.5t61 -25.5t61 25.5t23 68.5h90q0 -78 -50 -126.5t-124 -48.5z" />
    <glyph glyph-name="uni040F" unicode="&#x40f;" horiz-adv-x="728" 
d="M430 0v-148h-131v148h-220v710h146v-572h278v572h145v-710h-218z" />
    <glyph glyph-name="uni0410" unicode="&#x410;" horiz-adv-x="743" 
d="M1 0l306 710h129l307 -710h-152l-69 162h-303l-68 -162h-150zM371 519l-98 -230h195z" />
    <glyph glyph-name="uni0411" unicode="&#x411;" horiz-adv-x="637" 
d="M225 444h141q105 0 173.5 -62t68.5 -160q0 -97 -68.5 -159.5t-173.5 -62.5h-287v710h468v-138h-322v-128zM467 222q0 42 -28 65.5t-75 23.5h-139v-177h139q47 0 75 23t28 65z" />
    <glyph glyph-name="uni0412" unicode="&#x412;" horiz-adv-x="634" 
d="M79 0v710h260q89 0 150 -60.5t61 -145.5q0 -77 -56 -127q105 -52 105 -168q0 -89 -63 -149t-157 -60h-300zM224 133h145q41 0 65 22.5t24 58.5t-24 59t-65 23h-145v-163zM224 419h101q38 0 61 22.5t23 56.5q0 33 -23.5 56.5t-60.5 23.5h-101v-159z" />
    <glyph glyph-name="uni0413" unicode="&#x413;" horiz-adv-x="521" 
d="M499 710v-138h-274v-572h-146v710h420z" />
    <glyph glyph-name="uni0414" unicode="&#x414;" horiz-adv-x="775" 
d="M612 -148v148h-452v-148h-131v286h12q91 0 91 202v370h520v-572h91v-286h-131zM277 572v-245q0 -123 -38 -189h268v434h-230z" />
    <glyph glyph-name="uni0415" unicode="&#x415;" horiz-adv-x="568" 
d="M79 0v710h442v-138h-297v-146h237v-138h-237v-150h297v-138h-442z" />
    <glyph glyph-name="uni0416" unicode="&#x416;" horiz-adv-x="1020" 
d="M857 0l-275 310v-310h-145v308l-274 -308h-180l315 359l-284 351h171l252 -312v312h145v-313l253 313h172l-285 -351l315 -359h-180z" />
    <glyph glyph-name="uni0417" unicode="&#x417;" horiz-adv-x="577" 
d="M115 533l-79 101q99 88 246 88q100 0 165 -51.5t65 -142.5q0 -100 -71 -152q96 -54 96 -168q0 -102 -72.5 -160.5t-181.5 -58.5q-172 0 -267 124l104 89q60 -78 161 -78q55 0 85 27t30 68q0 39 -28.5 62t-83.5 23h-106v122h98q47 0 71.5 22t24.5 59t-26.5 59.5
t-81.5 22.5q-83 0 -149 -56z" />
    <glyph glyph-name="uni0418" unicode="&#x418;" horiz-adv-x="792" 
d="M204 0h-125v710h146v-463l363 463h125v-710h-144v464z" />
    <glyph glyph-name="uni0419" unicode="&#x419;" horiz-adv-x="792" 
d="M204 0h-125v710h146v-463l363 463h125v-710h-144v464zM406 750q-74 0 -124 48.5t-50 126.5h90q0 -43 23 -68.5t61 -25.5t61 25.5t23 68.5h90q0 -78 -50 -126.5t-124 -48.5z" />
    <glyph glyph-name="uni041A" unicode="&#x41a;" horiz-adv-x="694" 
d="M531 0l-308 322v-322h-144v710h144v-301l256 301h179l-292 -341l353 -369h-188z" />
    <glyph glyph-name="uni041B" unicode="&#x41b;" horiz-adv-x="743" 
d="M144 249v461h520v-710h-145v572h-230v-341q0 -119 -52.5 -180.5t-148.5 -62.5q-45 2 -68 5v134q15 -3 48 -3q39 0 57.5 26.5t18.5 98.5z" />
    <glyph glyph-name="uni041C" unicode="&#x41c;" horiz-adv-x="884" 
d="M79 710h132l231 -317l231 317h132v-710h-145v462l-218 -299l-218 299v-462h-145v710z" />
    <glyph glyph-name="uni041D" unicode="&#x41d;" horiz-adv-x="756" 
d="M79 0v710h145v-283h308v283h145v-710h-145v289h-308v-289h-145z" />
    <glyph glyph-name="uni041E" unicode="&#x41e;" horiz-adv-x="808" 
d="M404 128q92 0 156.5 66.5t64.5 160.5t-64.5 160.5t-156.5 66.5t-156.5 -66.5t-64.5 -160.5t64.5 -160.5t156.5 -66.5zM404 -12q-152 0 -259.5 107.5t-107.5 259.5t107.5 259.5t259.5 107.5t259.5 -107.5t107.5 -259.5t-107.5 -259.5t-259.5 -107.5z" />
    <glyph glyph-name="uni041F" unicode="&#x41f;" horiz-adv-x="748" 
d="M524 0v572h-300v-572h-145v710h590v-710h-145z" />
    <glyph glyph-name="uni0420" unicode="&#x420;" horiz-adv-x="591" 
d="M564 471q0 -102 -71 -170.5t-178 -68.5h-91v-232h-145v710h236q107 0 178 -68.5t71 -170.5zM423 471q0 45 -30 74t-80 29h-89v-206h89q50 0 80 29t30 74z" />
    <glyph glyph-name="uni0421" unicode="&#x421;" horiz-adv-x="753" 
d="M404 -12q-152 0 -259.5 107.5t-107.5 259.5t107.5 259.5t259.5 107.5q106 0 194 -51.5t134 -137.5l-126 -70q-70 119 -202 119q-92 0 -156.5 -66.5t-64.5 -160.5t64.5 -160.5t156.5 -66.5q132 0 202 119l126 -70q-46 -87 -133 -138t-195 -51z" />
    <glyph glyph-name="uni0422" unicode="&#x422;" horiz-adv-x="568" 
d="M210 0v572h-189v138h526v-138h-191v-572h-146z" />
    <glyph glyph-name="uni0423" unicode="&#x423;" horiz-adv-x="724" 
d="M132 -5v134q25 -4 64 -4q34 0 57 9.5t43 39.5l-276 536h166l193 -374l187 374h165l-272 -537q-51 -98 -107 -141.5t-135 -43.5q-47 0 -85 7z" />
    <glyph glyph-name="uni0424" unicode="&#x424;" horiz-adv-x="898" 
d="M376 190v338h-1q-193 0 -193 -168q0 -79 46.5 -124.5t146.5 -45.5h1zM522 -30h-146v88h-1q-157 0 -248 78.5t-91 222.5q0 142 91 220.5t248 78.5h1v82h146v-82h1q156 0 247.5 -78.5t91.5 -220.5q0 -144 -91.5 -222.5t-247.5 -78.5h-1v-88zM522 190h1q99 0 146 45.5
t47 124.5t-47 123.5t-146 44.5h-1v-338z" />
    <glyph glyph-name="uni0425" unicode="&#x425;" horiz-adv-x="697" 
d="M164 0h-170l267 359l-252 351h168l171 -239l172 239h168l-253 -351l268 -359h-170l-185 246z" />
    <glyph glyph-name="uni0426" unicode="&#x426;" horiz-adv-x="770" 
d="M646 138h92v-286h-131v148h-528v710h146v-572h276v572h145v-572z" />
    <glyph glyph-name="uni0427" unicode="&#x427;" horiz-adv-x="687" 
d="M608 0h-146v317q-63 -73 -177 -73q-104 0 -173 66t-69 170v230h146v-193q0 -68 33 -101t93 -33q64 0 105.5 41t41.5 121v165h146v-710z" />
    <glyph glyph-name="uni0428" unicode="&#x428;" horiz-adv-x="978" 
d="M79 0v710h146v-572h191v572h146v-572h192v572h145v-710h-820z" />
    <glyph glyph-name="uni0429" unicode="&#x429;" horiz-adv-x="1023" 
d="M860 -148v148h-781v710h146v-572h191v572h146v-572h192v572h145v-572h92v-286h-131z" />
    <glyph glyph-name="uni042A" unicode="&#x42a;" horiz-adv-x="733" 
d="M343 454h118q106 0 174 -64t68 -163t-68 -163t-174 -64h-264v572h-176v138h322v-256zM343 134h115q49 0 76.5 23.5t27.5 69.5q0 45 -28 69t-76 24h-115v-186z" />
    <glyph glyph-name="uni042B" unicode="&#x42b;" horiz-adv-x="899" 
d="M225 454h118q106 0 174 -64t68 -163t-68 -163t-174 -64h-264v710h146v-256zM225 134h115q49 0 76.5 23.5t27.5 69.5q0 45 -28 69t-76 24h-115v-186zM675 0v710h145v-710h-145z" />
    <glyph glyph-name="uni042C" unicode="&#x42c;" horiz-adv-x="615" 
d="M225 454h118q106 0 174 -64t68 -163t-68 -163t-174 -64h-264v710h146v-256zM225 134h115q49 0 76.5 23.5t27.5 69.5q0 45 -28 69t-76 24h-115v-186z" />
    <glyph glyph-name="uni042D" unicode="&#x42d;" horiz-adv-x="757" 
d="M353 -14q-107 0 -194 51.5t-134 138.5l126 69q71 -119 202 -119q76 0 134 46.5t79 118.5h-303v128h302q-21 71 -79 116.5t-133 45.5q-131 0 -202 -120l-126 70q46 86 134 137.5t194 51.5q152 0 259.5 -107.5t107.5 -259.5t-107.5 -259.5t-259.5 -107.5z" />
    <glyph glyph-name="uni042E" unicode="&#x42e;" horiz-adv-x="1077" 
d="M79 0v710h146v-286h108q23 132 119 215t231 83q152 0 254 -105t102 -262t-102 -262t-254 -105q-135 0 -232 84t-119 217h-107v-289h-146zM892 355q0 99 -59 163t-150 64q-92 0 -151 -64t-59 -163t59 -163t151 -64q91 0 150 64t59 163z" />
    <glyph glyph-name="uni042F" unicode="&#x42f;" horiz-adv-x="648" 
d="M423 0v246h-51l-218 -246h-175l241 274q-62 27 -99 80.5t-37 123.5q0 101 66.5 166.5t175.5 65.5h243v-710h-146zM225 478q0 -45 28 -72.5t74 -27.5h96v200h-96q-46 0 -74 -27.5t-28 -72.5z" />
    <glyph glyph-name="uni0430" unicode="&#x430;" horiz-adv-x="617" 
d="M269 -11q-99 0 -167 77t-68 184t68 184t167 77q48 0 86 -20t58 -47v56h137v-500h-137v56q-20 -27 -58 -47t-86 -20zM298 114q57 0 91.5 38t34.5 98t-34.5 98t-91.5 38t-91.5 -38t-34.5 -98t34.5 -98t91.5 -38z" />
    <glyph glyph-name="uni0431" unicode="&#x431;" horiz-adv-x="606" 
d="M309 -11q-126 0 -193 81.5t-67 225.5v29q0 128 36.5 211.5t100.5 125.5t164 60l175 32v-130l-145 -26q-87 -16 -133.5 -54t-55.5 -110q55 54 144 54q108 0 172 -68t64 -169q0 -110 -75.5 -186t-186.5 -76zM308 117q56 0 90.5 34.5t34.5 95.5q0 51 -35 86.5t-89 35.5
q-55 0 -89.5 -36t-34.5 -86q0 -61 34 -95.5t89 -34.5z" />
    <glyph glyph-name="uni0432" unicode="&#x432;" horiz-adv-x="556" 
d="M66 0v500h239q91 0 138.5 -44t47.5 -106q0 -46 -33 -84q65 -41 65 -114q0 -63 -45.5 -107.5t-137.5 -44.5h-274zM203 112h130q24 0 39 13t15 37q0 23 -15 36t-39 13h-130v-99zM203 303h102q20 0 35 11t15 35t-15 35t-35 11h-102v-92z" />
    <glyph glyph-name="uni0433" unicode="&#x433;" horiz-adv-x="428" 
d="M66 0v500h345v-120h-208v-380h-137z" />
    <glyph glyph-name="uni0434" unicode="&#x434;" horiz-adv-x="653" 
d="M29 120h13q70 0 70 129v251h430v-380h81v-243h-123v123h-348v-123h-123v243zM249 380v-139q0 -77 -25 -121h181v260h-156z" />
    <glyph glyph-name="uni0435" unicode="&#x435;" horiz-adv-x="578" 
d="M299 -11q-114 0 -189.5 72t-75.5 189q0 112 75 186.5t188 74.5q104 0 175 -64.5t71 -181.5q0 -33 -2 -47h-374q6 -49 43.5 -76.5t89.5 -27.5q88 0 129 63l102 -76q-77 -112 -232 -112zM172 311h234q-9 43 -40.5 65t-72.5 22q-42 0 -77 -22t-44 -65z" />
    <glyph glyph-name="uni0436" unicode="&#x436;" horiz-adv-x="824" 
d="M665 0l-184 200v-200h-137v202l-185 -202h-170l232 254l-199 246h159l163 -204v204h137v-201l161 201h159l-200 -246l234 -254h-170z" />
    <glyph glyph-name="uni0437" unicode="&#x437;" horiz-adv-x="481" 
d="M233 -11q-144 0 -217 104l92 66q41 -57 112 -57q88 0 88 56q0 52 -72 52h-71v94h67q64 0 64 48q0 23 -18 36.5t-53 13.5q-66 0 -112 -51l-78 77q80 83 198 83q98 0 145.5 -45.5t47.5 -102.5q0 -63 -48 -99q68 -41 68 -117q0 -61 -55 -109.5t-158 -48.5z" />
    <glyph glyph-name="uni0438" unicode="&#x438;" horiz-adv-x="616" 
d="M189 0h-123v500h137v-295l224 295h122v-500h-136v295z" />
    <glyph glyph-name="uni0439" unicode="&#x439;" horiz-adv-x="616" 
d="M189 0h-123v500h137v-295l224 295h122v-500h-136v295zM316 558q-74 0 -124 48t-50 126v18h90v-18q0 -46 23.5 -70.5t60.5 -24.5t60.5 24.5t23.5 70.5v18h90v-18q0 -78 -50 -126t-124 -48z" />
    <glyph glyph-name="uni043A" unicode="&#x43a;" horiz-adv-x="551" 
d="M393 0l-190 202v-202h-137v500h137v-204l169 204h163l-208 -246l242 -254h-176z" />
    <glyph glyph-name="uni043B" unicode="&#x43b;" horiz-adv-x="609" 
d="M84 -10q-44 0 -65 5v116q22 -2 35 -2q31 0 46 19.5t15 68.5v303h428v-500h-137v380h-154v-200q0 -93 -49.5 -141.5t-118.5 -48.5z" />
    <glyph glyph-name="uni043C" unicode="&#x43c;" horiz-adv-x="693" 
d="M66 500h116l164 -208l165 208h116v-500h-137v289l-143 -181l-144 181v-289h-137v500z" />
    <glyph glyph-name="uni043D" unicode="&#x43d;" horiz-adv-x="612" 
d="M66 0v500h137v-189h206v189h137v-500h-137v192h-206v-192h-137z" />
    <glyph glyph-name="uni043E" unicode="&#x43e;" horiz-adv-x="592" 
d="M296 -11q-109 0 -186 75.5t-77 185.5q0 109 77 185t186 76t186 -76t77 -185q0 -110 -77 -185.5t-186 -75.5zM296 117q53 0 88.5 37.5t35.5 95.5t-35.5 95.5t-88.5 37.5q-54 0 -89.5 -37.5t-35.5 -95.5t35.5 -95.5t89.5 -37.5z" />
    <glyph glyph-name="uni043F" unicode="&#x43f;" horiz-adv-x="602" 
d="M66 0v500h470v-500h-137v380h-196v-380h-137z" />
    <glyph glyph-name="uni0440" unicode="&#x440;" horiz-adv-x="617" 
d="M203 -209h-137v709h137v-56q19 27 58 47t87 20q99 0 167 -77t68 -184t-68 -184t-167 -77q-48 0 -87 20t-58 47v-265zM318 114q57 0 91.5 38t34.5 98t-34.5 98t-91.5 38t-91.5 -38t-34.5 -98t34.5 -98t91.5 -38z" />
    <glyph glyph-name="uni0441" unicode="&#x441;" horiz-adv-x="558" 
d="M299 -11q-112 0 -188.5 74.5t-76.5 186.5t76.5 186.5t188.5 74.5q77 0 140.5 -39.5t96.5 -104.5l-119 -64q-16 36 -46.5 58t-71.5 22q-54 0 -90.5 -38t-36.5 -95t36.5 -95t90.5 -38q41 0 71.5 22t46.5 58l119 -64q-33 -65 -96.5 -104.5t-140.5 -39.5z" />
    <glyph glyph-name="uni0442" unicode="&#x442;" horiz-adv-x="459" 
d="M156 0v380h-138v120h423v-120h-148v-380h-137z" />
    <glyph glyph-name="uni0443" unicode="&#x443;" horiz-adv-x="570" 
d="M570 500l-249 -563q-36 -81 -84 -118t-120 -37q-42 0 -67 4v117q30 -2 49 -2q56 0 88 69l25 58l-210 472h150l138 -313l129 313h151z" />
    <glyph glyph-name="uni0444" unicode="&#x444;" horiz-adv-x="764" 
d="M451 -209h-137v198h-11q-125 0 -197 76t-72 185t72 185t197 76h11v239h137v-239h10q125 0 197 -76t72 -185t-72 -185t-197 -76h-10v-198zM461 385h-10v-270h10q60 0 95.5 39.5t35.5 95.5t-36 95.5t-95 39.5zM314 115v270h-11q-59 0 -95 -39.5t-36 -95.5t35.5 -95.5
t95.5 -39.5h11z" />
    <glyph glyph-name="uni0445" unicode="&#x445;" horiz-adv-x="567" 
d="M400 0l-116 147l-116 -147h-165l194 245l-189 255h162l113 -153l113 153h163l-189 -255l194 -245h-164z" />
    <glyph glyph-name="uni0446" unicode="&#x446;" horiz-adv-x="646" 
d="M619 120v-243h-123v123h-430v500h137v-380h196v380h137v-380h83z" />
    <glyph glyph-name="uni0447" unicode="&#x447;" horiz-adv-x="563" 
d="M497 0h-137v202q-17 -22 -54 -37t-85 -15q-82 0 -134 50t-52 147v153h137v-137q0 -92 88 -92q41 0 70.5 27t29.5 83v119h137v-500z" />
    <glyph glyph-name="uni0448" unicode="&#x448;" horiz-adv-x="833" 
d="M66 0v500h137v-380h145v380h137v-380h145v380h137v-500h-701z" />
    <glyph glyph-name="uni0449" unicode="&#x449;" horiz-adv-x="878" 
d="M849 120v-243h-122v123h-661v500h137v-380h145v380h137v-380h145v380h137v-380h82z" />
    <glyph glyph-name="uni044A" unicode="&#x44a;" horiz-adv-x="584" 
d="M144 0v381h-125v119h262v-149h94q91 0 137.5 -53.5t46.5 -119.5q0 -67 -46.5 -122.5t-137.5 -55.5h-231zM281 234v-117h78q70 0 70 60q0 57 -70 57h-78z" />
    <glyph glyph-name="uni044B" unicode="&#x44b;" horiz-adv-x="752" 
d="M548 0v500h137v-500h-137zM66 0v500h137v-149h94q91 0 137.5 -53.5t46.5 -119.5q0 -67 -46.5 -122.5t-137.5 -55.5h-231zM203 234v-117h78q71 0 71 60q0 57 -71 57h-78z" />
    <glyph glyph-name="uni044C" unicode="&#x44c;" horiz-adv-x="506" 
d="M66 0v500h137v-149h94q91 0 137.5 -53.5t46.5 -119.5q0 -67 -46.5 -122.5t-137.5 -55.5h-231zM203 234v-117h78q71 0 71 60q0 57 -71 57h-78z" />
    <glyph glyph-name="uni044D" unicode="&#x44d;" horiz-adv-x="560" 
d="M261 -11q-77 0 -140.5 39.5t-96.5 104.5l119 64q16 -36 46.5 -58t71.5 -22q45 0 77.5 25.5t44.5 67.5h-170v91h167q-15 37 -46.5 59.5t-72.5 22.5t-71.5 -22t-46.5 -58l-119 64q33 65 96.5 104.5t140.5 39.5q112 0 188.5 -74.5t76.5 -186.5t-76.5 -186.5t-188.5 -74.5z
" />
    <glyph glyph-name="uni044E" unicode="&#x44e;" horiz-adv-x="821" 
d="M531 -11q-92 0 -159.5 56.5t-88.5 145.5h-80v-191h-137v500h137v-190h80q18 88 86.5 144.5t161.5 56.5q110 0 182.5 -76t72.5 -185t-72.5 -185t-182.5 -76zM531 117q53 0 85 37.5t32 95.5t-32 95.5t-85 37.5t-84.5 -37t-31.5 -95q0 -59 32 -96.5t84 -37.5z" />
    <glyph glyph-name="uni044F" unicode="&#x44f;" horiz-adv-x="541" 
d="M-11 0l172 190q-91 45 -91 142q0 74 49 121t135 47h221v-500h-137v158h-48l-146 -158h-155zM262 268h76v121h-77q-62 0 -62 -63q0 -27 18 -42.5t45 -15.5z" />
    <glyph glyph-name="uni0451" unicode="&#x451;" horiz-adv-x="578" 
d="M299 -11q-114 0 -189.5 72t-75.5 189q0 112 75 186.5t188 74.5q104 0 175 -64.5t71 -181.5q0 -33 -2 -47h-374q6 -49 43.5 -76.5t89.5 -27.5q88 0 129 63l102 -76q-77 -112 -232 -112zM172 311h234q-9 43 -40.5 65t-72.5 22q-42 0 -77 -22t-44 -65zM179 577q-32 0 -54 22
t-22 53q0 32 22 54t54 22q31 0 53 -22t22 -54q0 -31 -22 -53t-53 -22zM414 577q-32 0 -54 22t-22 53q0 32 22 54t54 22q31 0 53 -22t22 -54q0 -31 -22 -53t-53 -22z" />
    <glyph glyph-name="uni0452" unicode="&#x452;" horiz-adv-x="599" 
d="M354 -219q-37 0 -57 4v117q14 -2 26 -2q40 0 59.5 19.5t19.5 64.5v286q0 55 -23 85.5t-65 30.5q-50 0 -80.5 -36t-30.5 -106v-244h-137v577h-88v91h88v82h137v-82h166v-91h-166v-134q46 68 143 68q90 0 141.5 -59.5t51.5 -158.5v-331q0 -88 -53 -134.5t-132 -46.5z" />
    <glyph glyph-name="uni0453" unicode="&#x453;" horiz-adv-x="428" 
d="M66 0v500h345v-120h-208v-380h-137zM192 560l106 190h159l-163 -190h-102z" />
    <glyph glyph-name="uni0454" unicode="&#x454;" horiz-adv-x="560" 
d="M299 -11q-112 0 -188.5 74.5t-76.5 186.5t76.5 186.5t188.5 74.5q77 0 140.5 -39.5t96.5 -104.5l-119 -64q-16 36 -46.5 58t-71.5 22t-72.5 -22.5t-46.5 -59.5h167v-91h-170q12 -42 44.5 -67.5t77.5 -25.5q41 0 71.5 22t46.5 58l119 -64q-33 -65 -96.5 -104.5
t-140.5 -39.5z" />
    <glyph glyph-name="uni0455" unicode="&#x455;" horiz-adv-x="460" 
d="M234 -11q-141 0 -205 96l94 80q33 -58 112 -58q23 0 38.5 9t15.5 27q0 17 -13 27t-53 21l-37 9q-69 18 -104.5 60t-33.5 100q2 68 54.5 109.5t133.5 41.5q114 0 173 -84l-91 -73q-33 44 -84 44q-20 0 -35 -9t-15 -25q0 -30 48 -43l48 -14q145 -39 145 -155
q0 -71 -54.5 -117t-136.5 -46z" />
    <glyph glyph-name="uni0456" unicode="&#x456;" horiz-adv-x="269" 
d="M134 582q-35 0 -61 25.5t-26 61.5t26 61.5t61 25.5q37 0 62.5 -25.5t25.5 -61.5t-25.5 -61.5t-62.5 -25.5zM66 0v500h137v-500h-137z" />
    <glyph glyph-name="uni0457" unicode="&#x457;" horiz-adv-x="269" 
d="M66 0v500h137v-500h-137zM40 577q-32 0 -54 22t-22 53q0 32 22 54t54 22q31 0 53 -22t22 -54q0 -31 -22 -53t-53 -22zM229 577q-31 0 -53 22t-22 53q0 32 22 54t53 22q32 0 54 -22t22 -54q0 -31 -22 -53t-54 -22z" />
    <glyph glyph-name="uni0458" unicode="&#x458;" horiz-adv-x="277" 
d="M211 500v-538q0 -88 -53 -134.5t-133 -46.5q-36 0 -56 4v117q14 -2 26 -2q79 0 79 84v516h137zM142 582q-35 0 -61 25.5t-26 61.5t26 61.5t61 25.5q37 0 62.5 -25.5t25.5 -61.5t-25.5 -61.5t-62.5 -25.5z" />
    <glyph glyph-name="uni0459" unicode="&#x459;" horiz-adv-x="832" 
d="M540 197v-82h89q49 0 49 40q0 20 -13.5 31t-35.5 11h-89zM115 500h425v-189h103q81 0 122.5 -46.5t41.5 -105.5q0 -60 -41.5 -109.5t-122.5 -49.5h-240v380h-151v-200q0 -93 -49.5 -141.5t-118.5 -48.5q-44 0 -65 5v116q22 -2 35 -2q31 0 46 19.5t15 68.5v303z" />
    <glyph glyph-name="uni045A" unicode="&#x45a;" horiz-adv-x="828" 
d="M674 155q0 20 -13.5 31t-35.5 11h-89v-82h89q49 0 49 40zM803 159q0 -60 -42 -109.5t-123 -49.5h-239v192h-196v-192h-137v500h137v-189h196v189h137v-189h102q82 0 123.5 -46.5t41.5 -105.5z" />
    <glyph glyph-name="uni045B" unicode="&#x45b;" horiz-adv-x="599" 
d="M66 577h-88v91h88v82h137v-82h166v-91h-166v-134q46 68 143 68q90 0 141.5 -59.5t51.5 -158.5v-293h-137v270q0 55 -23 85.5t-65 30.5q-50 0 -80.5 -36t-30.5 -106v-244h-137v577z" />
    <glyph glyph-name="uni045C" unicode="&#x45c;" horiz-adv-x="551" 
d="M393 0l-190 202v-202h-137v500h137v-204l169 204h163l-208 -246l242 -254h-176zM251 560l106 190h159l-163 -190h-102z" />
    <glyph glyph-name="uni045E" unicode="&#x45e;" horiz-adv-x="570" 
d="M570 500l-249 -563q-36 -81 -84 -118t-120 -37q-42 0 -67 4v117q30 -2 49 -2q56 0 88 69l25 58l-210 472h150l138 -313l129 313h151zM286 558q-74 0 -124 48t-50 126v18h90v-18q0 -46 23.5 -70.5t60.5 -24.5t60.5 24.5t23.5 70.5v18h90v-18q0 -78 -50 -126t-124 -48z" />
    <glyph glyph-name="uni045F" unicode="&#x45f;" horiz-adv-x="603" 
d="M537 0h-174v-123h-122v123h-175v500h137v-379h197v379h137v-500z" />
    <glyph glyph-name="uni0462" unicode="&#x462;" horiz-adv-x="751" 
d="M355 438h118q106 0 174 -61t68 -158q0 -95 -68 -157t-174 -62h-264v516h-180v127h180v67h146v-67h218v-127h-218v-78zM355 134h115q49 0 76.5 21.5t27.5 63.5q0 41 -28 63t-76 22h-115v-170z" />
    <glyph glyph-name="uni0463" unicode="&#x463;" horiz-adv-x="562" 
d="M17 410v90h98v250h137v-250h170v-90h-170v-59h94q91 0 137.5 -53.5t46.5 -119.5q0 -67 -46.5 -122.5t-137.5 -55.5h-231v410h-98zM331 234h-79v-117h79q70 0 70 60q0 57 -70 57z" />
    <glyph glyph-name="uni0472" unicode="&#x472;" horiz-adv-x="808" 
d="M404 128q92 0 156.5 66.5t64.5 160.5t-64.5 160.5t-156.5 66.5t-156.5 -66.5t-64.5 -160.5t64.5 -160.5t156.5 -66.5zM404 -12q-152 0 -259.5 107.5t-107.5 259.5t107.5 259.5t259.5 107.5t259.5 -107.5t107.5 -259.5t-107.5 -259.5t-259.5 -107.5zM501 401q75 0 129 39
v-127q-53 -38 -129 -38q-37 0 -101 19t-95 19q-74 0 -129 -38v126q54 39 129 39q46 0 105.5 -19.5t90.5 -19.5z" />
    <glyph glyph-name="uni0473" unicode="&#x473;" horiz-adv-x="592" 
d="M296 -11q-109 0 -186 75.5t-77 185.5q0 109 77 185t186 76t186 -76t77 -185q0 -110 -77 -185.5t-186 -75.5zM296 117q53 0 88.5 37.5t35.5 95.5t-35.5 95.5t-88.5 37.5q-54 0 -89.5 -37.5t-35.5 -95.5t35.5 -95.5t89.5 -37.5zM106 295v-87h380v87h-380z" />
    <glyph glyph-name="uni0474" unicode="&#x474;" horiz-adv-x="789" 
d="M161 710l199 -493l136 334q36 95 83 133t117 38q38 0 74 -9v-136q-33 5 -57 3.5t-44 -20.5t-36 -61l-208 -499h-129l-293 710h158z" />
    <glyph glyph-name="uni0475" unicode="&#x475;" horiz-adv-x="607" 
d="M1 500h151l132 -319l73 175q36 86 76 120.5t102 34.5q29 0 59 -8v-118q-41 5 -61.5 -6t-37.5 -49l-148 -330h-125z" />
    <glyph glyph-name="uni0490" unicode="&#x490;" horiz-adv-x="521" 
d="M499 710v-138h-274v-572h-146v710h420zM499 710h-131v148h131v-148z" />
    <glyph glyph-name="uni0491" unicode="&#x491;" horiz-adv-x="428" 
d="M66 0v500h345v-120h-208v-380h-137zM411 500h-123v123h123v-123z" />
    <glyph glyph-name="uni0492" unicode="&#x492;" horiz-adv-x="552" 
d="M529 710v-138h-274v-572h-146v710h420zM20 292v128h397v-128h-397z" />
    <glyph glyph-name="uni0493" unicode="&#x493;" horiz-adv-x="461" 
d="M99 0v500h345v-120h-208v-380h-137zM342 197h-322v90h322v-90z" />
    <glyph glyph-name="uni0496" unicode="&#x496;" horiz-adv-x="1047" 
d="M857 0l-275 310v-310h-145v308l-274 -308h-180l315 359l-284 351h171l252 -312v312h145v-313l253 313h172l-285 -351l315 -359h-180zM910 -148v148h-24v138h155v-286h-131z" />
    <glyph glyph-name="uni0497" unicode="&#x497;" horiz-adv-x="845" 
d="M665 0l-184 200v-200h-137v202l-185 -202h-170l232 254l-199 246h159l163 -204v204h137v-201l161 201h159l-200 -246l234 -254h-170zM715 -123v123h-24v120h146v-243h-122z" />
    <glyph glyph-name="uni049A" unicode="&#x49a;" horiz-adv-x="722" 
d="M531 0l-308 322v-322h-144v710h144v-301l256 301h179l-292 -341l353 -369h-188zM590 -148v148h-24v138h155v-286h-131z" />
    <glyph glyph-name="uni049B" unicode="&#x49b;" horiz-adv-x="575" 
d="M393 0l-190 202v-202h-137v500h137v-204l169 204h163l-208 -246l242 -254h-176zM450 -123v123h-24v120h146v-243h-122z" />
    <glyph glyph-name="uni04A2" unicode="&#x4a2;" horiz-adv-x="801" 
d="M79 0v710h145v-283h308v283h145v-710h-145v289h-308v-289h-145zM639 -148v148h-24v138h155v-286h-131z" />
    <glyph glyph-name="uni04A3" unicode="&#x4a3;" horiz-adv-x="657" 
d="M66 0v500h137v-189h206v189h137v-500h-137v192h-206v-192h-137zM507 -123v123h-24v120h146v-243h-122z" />
    <glyph glyph-name="uni04AE" unicode="&#x4ae;" horiz-adv-x="690" 
d="M272 0v299l-262 411h168l166 -269l167 269h169l-263 -412v-298h-145z" />
    <glyph glyph-name="uni04AF" unicode="&#x4af;" horiz-adv-x="573" 
d="M218 -209v209l-217 500h152l133 -332l134 332h153l-218 -500v-209h-137z" />
    <glyph glyph-name="uni04B0" unicode="&#x4b0;" horiz-adv-x="682" 
d="M269 0v299l-262 411h168l166 -269l167 269h169l-263 -412v-298h-145zM559 299v-129h-438v129h438z" />
    <glyph glyph-name="uni04B1" unicode="&#x4b1;" horiz-adv-x="573" 
d="M218 -209v209l-217 500h152l133 -332l134 332h153l-218 -500v-209h-137zM90 -90v90h393v-90h-393z" />
    <glyph glyph-name="uni04B2" unicode="&#x4b2;" horiz-adv-x="740" 
d="M164 0h-170l267 359l-252 351h168l171 -239l172 239h168l-253 -351l268 -359h-170l-185 246zM602 -148v148h-24v138h155v-286h-131z" />
    <glyph glyph-name="uni04B3" unicode="&#x4b3;" horiz-adv-x="589" 
d="M400 0l-116 147l-116 -147h-165l194 245l-189 255h162l113 -153l113 153h163l-189 -255l194 -245h-164zM451 -123v123h-24v120h146v-243h-122z" />
    <glyph glyph-name="uni04B6" unicode="&#x4b6;" horiz-adv-x="732" 
d="M608 0h-146v317q-63 -73 -177 -73q-104 0 -173 66t-69 170v230h146v-193q0 -68 33 -101t93 -33q64 0 105.5 41t41.5 121v165h146v-710zM570 -148v148h-24v138h155v-286h-131z" />
    <glyph glyph-name="uni04B7" unicode="&#x4b7;" horiz-adv-x="608" 
d="M497 0h-137v202q-17 -22 -54 -37t-85 -15q-82 0 -134 50t-52 147v153h137v-137q0 -92 88 -92q41 0 70.5 27t29.5 83v119h137v-500zM458 -123v123h-24v120h146v-243h-122z" />
    <glyph glyph-name="uni04BA" unicode="&#x4ba;" horiz-adv-x="687" 
d="M79 710h146v-317q63 73 177 73q104 0 173 -66t69 -170v-230h-146v193q0 68 -33 101t-93 33q-64 0 -105.5 -41t-41.5 -121v-165h-146v710z" />
    <glyph glyph-name="uni04BB" unicode="&#x4bb;" horiz-adv-x="599" 
d="M203 0h-137v750h137v-307q46 68 143 68q90 0 141.5 -59.5t51.5 -158.5v-293h-137v270q0 55 -23 85.5t-65 30.5q-50 0 -80.5 -36t-30.5 -106v-244z" />
    <glyph glyph-name="uni04C0" unicode="&#x4c0;" horiz-adv-x="303" 
d="M79 0v710h145v-710h-145z" />
    <glyph glyph-name="uni04CF" unicode="&#x4cf;" horiz-adv-x="269" 
d="M66 0v750h137v-750h-137z" />
    <glyph glyph-name="uni04D8" unicode="&#x4d8;" horiz-adv-x="805" 
d="M33 355v62h578q-21 79 -82.5 122t-133.5 43q-115 0 -185 -80l-97 98q114 122 287 122q151 0 259 -106.5t108 -260.5q0 -153 -107 -260t-260 -107q-155 0 -261 107t-106 260zM400 128q71 0 132 42.5t80 118.5h-425q14 -70 74 -115.5t139 -45.5z" />
    <glyph glyph-name="uni04D9" unicode="&#x4d9;" horiz-adv-x="578" 
d="M279 511q114 0 189.5 -72t75.5 -189q0 -112 -75 -186.5t-188 -74.5q-104 0 -175 64.5t-71 181.5q0 33 2 47h373q-6 49 -43 76.5t-89 27.5q-88 0 -129 -63l-103 76q36 52 96 82t137 30zM285 102q42 0 77 22t44 65h-235q9 -43 41 -65t73 -22z" />
    <glyph glyph-name="uni04E2" unicode="&#x4e2;" horiz-adv-x="792" 
d="M204 0h-125v710h146v-463l363 463h125v-710h-144v464zM235 791v96h342v-96h-342z" />
    <glyph glyph-name="uni04E3" unicode="&#x4e3;" horiz-adv-x="616" 
d="M189 0h-123v500h137v-295l224 295h122v-500h-136v295zM145 613v97h342v-97h-342z" />
    <glyph glyph-name="uni04E8" unicode="&#x4e8;" horiz-adv-x="808" 
d="M404 128q92 0 156.5 66.5t64.5 160.5t-64.5 160.5t-156.5 66.5t-156.5 -66.5t-64.5 -160.5t64.5 -160.5t156.5 -66.5zM404 -12q-152 0 -259.5 107.5t-107.5 259.5t107.5 259.5t259.5 107.5t259.5 -107.5t107.5 -259.5t-107.5 -259.5t-259.5 -107.5zM105 418v-128h596v128
h-596z" />
    <glyph glyph-name="uni04E9" unicode="&#x4e9;" horiz-adv-x="592" 
d="M296 -11q-109 0 -186 75.5t-77 185.5q0 109 77 185t186 76t186 -76t77 -185q0 -110 -77 -185.5t-186 -75.5zM296 117q53 0 88.5 37.5t35.5 95.5t-35.5 95.5t-88.5 37.5q-54 0 -89.5 -37.5t-35.5 -95.5t35.5 -95.5t89.5 -37.5zM106 295v-87h380v87h-380z" />
    <glyph glyph-name="uni04EE" unicode="&#x4ee;" horiz-adv-x="724" 
d="M132 -5v134q25 -4 64 -4q34 0 57 9.5t43 39.5l-276 536h166l193 -374l187 374h165l-272 -537q-51 -98 -107 -141.5t-135 -43.5q-47 0 -85 7zM206 791v96h342v-96h-342z" />
    <glyph glyph-name="uni04EF" unicode="&#x4ef;" horiz-adv-x="570" 
d="M570 500l-249 -563q-36 -81 -84 -118t-120 -37q-42 0 -67 4v117q30 -2 49 -2q56 0 88 69l25 58l-210 472h150l138 -313l129 313h151zM115 613v97h342v-97h-342z" />
    <glyph glyph-name="Wgrave" unicode="&#x1e80;" horiz-adv-x="961" 
d="M637 0l-156 377l-156 -377h-136l-171 710h154l108 -472l201 484l201 -484l108 472h154l-171 -710h-136zM526 770h-103l-123 157h154z" />
    <glyph glyph-name="wgrave" unicode="&#x1e81;" horiz-adv-x="800" 
d="M494 0l-94 284l-93 -284h-136l-166 500h146l95 -320l101 320h105l102 -320l94 320h147l-165 -500h-136zM350 560l-163 190h159l106 -190h-102z" />
    <glyph glyph-name="Wacute" unicode="&#x1e82;" horiz-adv-x="961" 
d="M637 0l-156 377l-156 -377h-136l-171 710h154l108 -472l201 484l201 -484l108 472h154l-171 -710h-136zM437 770l72 157h154l-123 -157h-103z" />
    <glyph glyph-name="wacute" unicode="&#x1e83;" horiz-adv-x="800" 
d="M494 0l-94 284l-93 -284h-136l-166 500h146l95 -320l101 320h105l102 -320l94 320h147l-165 -500h-136zM355 560l106 190h159l-163 -190h-102z" />
    <glyph glyph-name="Wdieresis" unicode="&#x1e84;" horiz-adv-x="961" 
d="M637 0l-156 377l-156 -377h-136l-171 710h154l108 -472l201 484l201 -484l108 472h154l-171 -710h-136zM364 772q-32 0 -54 22t-22 53q0 32 22 54t54 22q31 0 53 -22t22 -54q0 -31 -22 -53t-53 -22zM599 772q-32 0 -54 22t-22 53q0 32 22 54t54 22q31 0 53 -22t22 -54
q0 -31 -22 -53t-53 -22z" />
    <glyph glyph-name="wdieresis" unicode="&#x1e85;" horiz-adv-x="800" 
d="M494 0l-94 284l-93 -284h-136l-166 500h146l95 -320l101 320h105l102 -320l94 320h147l-165 -500h-136zM284 577q-32 0 -54 22t-22 53q0 32 22 54t54 22q31 0 53 -22t22 -54q0 -31 -22 -53t-53 -22zM519 577q-32 0 -54 22t-22 53q0 32 22 54t54 22q31 0 53 -22t22 -54
q0 -31 -22 -53t-53 -22z" />
    <glyph glyph-name="uni1E9E" unicode="&#x1e9e;" horiz-adv-x="648" 
d="M79 0v710h484v-98l-99 -155q144 -50 144 -213q0 -114 -71.5 -179t-187.5 -65h-46v138h43q51 0 83.5 27.5t32.5 78.5q0 50 -33 77.5t-83 27.5h-43v100l82 129h-161v-578h-145z" />
    <glyph glyph-name="uni1ECA" unicode="&#x1eca;" horiz-adv-x="303" 
d="M79 0v710h145v-710h-145zM152 -219q-32 0 -54 22t-22 53q0 32 22 54t54 22q31 0 53 -22t22 -54q0 -31 -22 -53t-53 -22z" />
    <glyph glyph-name="uni1ECB" unicode="&#x1ecb;" horiz-adv-x="269" 
d="M134 582q-35 0 -61 25.5t-26 61.5t26 61.5t61 25.5q37 0 62.5 -25.5t25.5 -61.5t-25.5 -61.5t-62.5 -25.5zM66 0v500h137v-500h-137zM135 -219q-32 0 -54 22t-22 53q0 32 22 54t54 22q31 0 53 -22t22 -54q0 -31 -22 -53t-53 -22z" />
    <glyph glyph-name="uni1ECC" unicode="&#x1ecc;" horiz-adv-x="808" 
d="M404 128q92 0 156.5 66.5t64.5 160.5t-64.5 160.5t-156.5 66.5t-156.5 -66.5t-64.5 -160.5t64.5 -160.5t156.5 -66.5zM404 -12q-152 0 -259.5 107.5t-107.5 259.5t107.5 259.5t259.5 107.5t259.5 -107.5t107.5 -259.5t-107.5 -259.5t-259.5 -107.5zM404 -219
q-32 0 -54 22t-22 53q0 32 22 54t54 22q31 0 53 -22t22 -54q0 -31 -22 -53t-53 -22z" />
    <glyph glyph-name="uni1ECD" unicode="&#x1ecd;" horiz-adv-x="592" 
d="M296 -11q-109 0 -186 75.5t-77 185.5q0 109 77 185t186 76t186 -76t77 -185q0 -110 -77 -185.5t-186 -75.5zM296 117q53 0 88.5 37.5t35.5 95.5t-35.5 95.5t-88.5 37.5q-54 0 -89.5 -37.5t-35.5 -95.5t35.5 -95.5t89.5 -37.5zM296 -219q-32 0 -54 22t-22 53q0 32 22 54
t54 22q31 0 53 -22t22 -54q0 -31 -22 -53t-53 -22z" />
    <glyph glyph-name="uni1EE4" unicode="&#x1ee4;" horiz-adv-x="720" 
d="M360 -12q-129 0 -209 80t-80 212v430h145v-432q0 -70 39 -110t105 -40t105 40t39 110v432h145v-430q0 -131 -81 -211.5t-208 -80.5zM360 -219q-32 0 -54 22t-22 53q0 32 22 54t54 22q31 0 53 -22t22 -54q0 -31 -22 -53t-53 -22z" />
    <glyph glyph-name="uni1EE5" unicode="&#x1ee5;" horiz-adv-x="588" 
d="M248 -11q-89 0 -138.5 60t-49.5 161v290h137v-267q0 -119 85 -119q48 0 75.5 36t27.5 106v244h137v-500h-137v57q-46 -68 -137 -68zM297 -219q-32 0 -54 22t-22 53q0 32 22 54t54 22q31 0 53 -22t22 -54q0 -31 -22 -53t-53 -22z" />
    <glyph glyph-name="Ygrave" unicode="&#x1ef2;" horiz-adv-x="690" 
d="M272 0v299l-262 411h168l166 -269l167 269h169l-263 -412v-298h-145zM390 770h-103l-123 157h154z" />
    <glyph glyph-name="ygrave" unicode="&#x1ef3;" horiz-adv-x="570" 
d="M256 -209h-149l105 237l-210 472h150l134 -324l133 324h151zM236 560l-163 190h159l106 -190h-102z" />
    <glyph glyph-name="uni2007" unicode="&#x2007;" horiz-adv-x="590" 
 />
    <glyph glyph-name="uni2008" unicode="&#x2008;" horiz-adv-x="279" 
 />
    <glyph glyph-name="uni2009" unicode="&#x2009;" horiz-adv-x="125" 
 />
    <glyph glyph-name="uni200B" unicode="&#x200b;" 
 />
    <glyph glyph-name="endash" unicode="&#x2013;" horiz-adv-x="587" 
d="M57 214v132h473v-132h-473z" />
    <glyph glyph-name="emdash" unicode="&#x2014;" horiz-adv-x="881" 
d="M57 214v132h767v-132h-767z" />
    <glyph glyph-name="quoteleft" unicode="&#x2018;" horiz-adv-x="275" 
d="M49 530l114 180h79l-72 -152q25 -10 42.5 -35.5t17.5 -56.5q0 -42 -29 -71t-71 -29t-71 29t-29 71q0 33 19 64z" />
    <glyph glyph-name="quoteright" unicode="&#x2019;" horiz-adv-x="280" 
d="M236 558l-112 -180h-81l74 152q-25 10 -42.5 35.5t-17.5 56.5q0 42 29 71t71 29t71 -29t29 -71q0 -32 -21 -64z" />
    <glyph glyph-name="quotesinglbase" unicode="&#x201a;" horiz-adv-x="282" 
d="M220 28l-112 -180h-81l73 152q-25 10 -42 35t-17 57q0 42 29 71t71 29t70.5 -29t28.5 -71q0 -31 -20 -64z" />
    <glyph glyph-name="quotedblleft" unicode="&#x201c;" horiz-adv-x="505" 
d="M49 530l114 180h79l-72 -152q25 -10 42.5 -35.5t17.5 -56.5q0 -42 -29 -71t-71 -29t-71 29t-29 71q0 33 19 64zM279 530l114 180h79l-72 -152q25 -10 42.5 -35.5t17.5 -56.5q0 -42 -29 -71t-71 -29t-71 29t-29 71q0 33 19 64z" />
    <glyph glyph-name="quotedblright" unicode="&#x201d;" horiz-adv-x="510" 
d="M236 558l-112 -180h-81l74 152q-25 10 -42.5 35.5t-17.5 56.5q0 42 29 71t71 29t71 -29t29 -71q0 -32 -21 -64zM466 558l-112 -180h-81l74 152q-25 10 -42.5 35.5t-17.5 56.5q0 42 29 71t71 29t71 -29t29 -71q0 -32 -21 -64z" />
    <glyph glyph-name="quotedblbase" unicode="&#x201e;" horiz-adv-x="512" 
d="M220 28l-112 -180h-81l73 152q-25 10 -42 35t-17 57q0 42 29 71t71 29t70.5 -29t28.5 -71q0 -31 -20 -64zM450 28l-112 -180h-81l73 152q-25 10 -42 35t-17 57q0 42 29 71t71 29t70.5 -29t28.5 -71q0 -31 -20 -64z" />
    <glyph glyph-name="dagger" unicode="&#x2020;" horiz-adv-x="517" 
d="M201 -98v489h-174v109h174v210h115v-210h174v-109h-174v-489h-115z" />
    <glyph glyph-name="daggerdbl" unicode="&#x2021;" horiz-adv-x="543" 
d="M503 112h-174v-210h-116v210h-173v109h173v170h-173v109h173v210h116v-210h174v-109h-174v-170h174v-109z" />
    <glyph glyph-name="bullet" unicode="&#x2022;" horiz-adv-x="400" 
d="M200 166q-56 0 -96 39.5t-40 96.5t40 96.5t96 39.5q57 0 97 -39.5t40 -96.5t-40 -96.5t-97 -39.5z" />
    <glyph glyph-name="ellipsis" unicode="&#x2026;" horiz-adv-x="800" 
d="M400 -8q-42 0 -71 29t-29 71t29 71t71 29q41 0 70.5 -29.5t29.5 -70.5t-29.5 -70.5t-70.5 -29.5zM666 -8q-42 0 -71 29t-29 71t29 71t71 29q41 0 70.5 -29.5t29.5 -70.5t-29.5 -70.5t-70.5 -29.5zM134 -8q-42 0 -71 29t-29 71t29 71t71 29q41 0 70.5 -29.5t29.5 -70.5
t-29.5 -70.5t-70.5 -29.5z" />
    <glyph glyph-name="perthousand" unicode="&#x2030;" horiz-adv-x="1399" 
d="M1174 -8q-82 0 -139.5 58t-57.5 139q0 82 57.5 139.5t139.5 57.5q81 0 139 -57.5t58 -139.5q0 -81 -58 -139t-139 -58zM1174 108q33 0 56 24t23 57t-23 57t-56 24t-56.5 -24t-23.5 -57t23.5 -57t56.5 -24zM336 0h-142l450 710h142zM755 -8q-82 0 -139.5 58t-57.5 139
q0 82 57.5 139.5t139.5 57.5q81 0 139 -57.5t58 -139.5q0 -81 -58 -139t-139 -58zM755 108q33 0 56 24t23 57t-23 57t-56 24t-56.5 -24t-23.5 -57t23.5 -57t56.5 -24zM225 324q-82 0 -139.5 58t-57.5 139q0 82 57.5 139.5t139.5 57.5q81 0 139 -57.5t58 -139.5
q0 -81 -58 -139t-139 -58zM225 440q33 0 56.5 24t23.5 57t-23.5 57t-56.5 24t-56.5 -24t-23.5 -57t23.5 -57t56.5 -24z" />
    <glyph glyph-name="guilsinglleft" unicode="&#x2039;" horiz-adv-x="322" 
d="M29 250l141 217h118l-116 -217l116 -217h-118z" />
    <glyph glyph-name="guilsinglright" unicode="&#x203a;" horiz-adv-x="322" 
d="M152 467l141 -217l-141 -217h-118l116 217l-116 217h118z" />
    <glyph glyph-name="fraction" unicode="&#x2044;" horiz-adv-x="180" 
d="M-99 0h-118l500 710h118z" />
    <glyph glyph-name="uni2060" unicode="&#x2060;" horiz-adv-x="223" 
 />
    <glyph glyph-name="uni2070" unicode="&#x2070;" horiz-adv-x="389" 
d="M195 403q-74 0 -119.5 49t-45.5 125v98q0 76 45.5 125t119.5 49q72 0 118 -49t46 -125v-98q0 -76 -46 -125t-118 -49zM195 499q30 0 48.5 21t18.5 57v98q0 36 -18.5 57t-48.5 21t-49 -21t-19 -57v-98q0 -36 19 -57t49 -21z" />
    <glyph glyph-name="uni2074" unicode="&#x2074;" horiz-adv-x="395" 
d="M223 410v90h-208v79l218 263h88v-253h55v-89h-55v-90h-98zM133 589h90v108z" />
    <glyph glyph-name="uni2075" unicode="&#x2075;" horiz-adv-x="350" 
d="M181 403q-65 0 -112.5 38t-49.5 98h100q12 -40 59 -40q23 0 38.5 16t15.5 40q0 23 -16 38.5t-39 15.5q-46 0 -58 -45l-87 26l47 252h217v-95h-141l-12 -61q24 11 53 11q61 0 97 -41t36 -107q0 -64 -41 -105t-107 -41z" />
    <glyph glyph-name="uni2076" unicode="&#x2076;" horiz-adv-x="339" 
d="M168 403q-69 0 -111 42t-42 102q0 35 10.5 58t40.5 67l115 170h119l-102 -151q47 -4 84.5 -40.5t37.5 -96.5q0 -65 -41 -108t-111 -43zM168 497q23 0 38.5 16.5t15.5 39.5t-15.5 39.5t-38.5 16.5q-26 0 -41 -16t-15 -40t15 -40t41 -16z" />
    <glyph glyph-name="uni2077" unicode="&#x2077;" horiz-adv-x="346" 
d="M138 410h-111l192 337h-193v95h309v-85z" />
    <glyph glyph-name="uni2078" unicode="&#x2078;" horiz-adv-x="363" 
d="M182 403q-67 0 -112 39.5t-45 99.5q0 64 52 100q-34 34 -34 89q0 48 38.5 83t100.5 35t99.5 -34.5t37.5 -83.5q0 -54 -35 -88q55 -36 55 -101q0 -59 -45.5 -99t-111.5 -40zM182 492q25 0 40.5 16.5t15.5 38.5q0 21 -15.5 37t-40.5 16q-26 0 -41.5 -15.5t-15.5 -37.5
t15.5 -38.5t41.5 -16.5zM182 676q19 0 33 12t14 32q0 18 -14 31t-33 13q-20 0 -33.5 -12.5t-13.5 -31.5q0 -20 13 -32t34 -12z" />
    <glyph glyph-name="uni2079" unicode="&#x2079;" horiz-adv-x="339" 
d="M39 410l102 151q-48 4 -85 40.5t-37 96.5q0 66 41.5 108.5t111.5 42.5q69 0 110.5 -42t41.5 -102q0 -35 -10.5 -58t-40.5 -67l-115 -170h-119zM172 643q24 0 39.5 16t15.5 40t-15.5 40t-39.5 16t-39.5 -16t-15.5 -40t15.5 -40t39.5 -16z" />
    <glyph glyph-name="uni2080" unicode="&#x2080;" horiz-adv-x="389" 
d="M195 -121q-74 0 -119.5 49t-45.5 125v98q0 76 45.5 125t119.5 49q72 0 118 -49t46 -125v-98q0 -76 -46 -125t-118 -49zM195 -25q30 0 48.5 21t18.5 57v98q0 36 -18.5 57t-48.5 21t-49 -21t-19 -57v-98q0 -36 19 -57t49 -21z" />
    <glyph glyph-name="uni2081" unicode="&#x2081;" horiz-adv-x="243" 
d="M100 -114v336h-95l68 96h124v-432h-97z" />
    <glyph glyph-name="uni2082" unicode="&#x2082;" horiz-adv-x="355" 
d="M325 -18v-96h-300v32q0 18 4 35t8 29.5t15 26.5t17 21.5t22.5 21t21.5 17.5t25 17.5t24 16.5q63 41 63 82q0 19 -12 31.5t-34 12.5q-25 0 -40 -15t-14 -35h-98q0 63 44.5 104.5t110.5 41.5q58 0 99.5 -35.5t41.5 -100.5q0 -55 -23 -90t-64 -63q-2 -1 -21.5 -13t-32.5 -22
t-18 -19h161z" />
    <glyph glyph-name="uni2083" unicode="&#x2083;" horiz-adv-x="364" 
d="M185 -121q-65 0 -113.5 39.5t-50.5 111.5h97q6 -55 67 -55q26 0 41 12.5t15 32.5q0 21 -16.5 34t-43.5 13h-39v77h33q53 0 53 44q0 18 -13 29.5t-33 11.5q-24 0 -39.5 -14.5t-15.5 -35.5h-97q0 66 46.5 106t106.5 40q68 0 105.5 -37t37.5 -91q0 -58 -43 -93
q23 -11 39 -35.5t16 -58.5q0 -57 -42.5 -94t-110.5 -37z" />
    <glyph glyph-name="uni2084" unicode="&#x2084;" horiz-adv-x="395" 
d="M223 -114v90h-208v79l218 263h88v-253h55v-89h-55v-90h-98zM133 65h90v108z" />
    <glyph glyph-name="uni2085" unicode="&#x2085;" horiz-adv-x="350" 
d="M181 -121q-65 0 -112.5 38t-49.5 98h100q12 -40 59 -40q23 0 38.5 16t15.5 40q0 23 -16 38.5t-39 15.5q-46 0 -58 -45l-87 26l47 252h217v-95h-141l-12 -61q24 11 53 11q61 0 97 -41t36 -107q0 -64 -41 -105t-107 -41z" />
    <glyph glyph-name="uni2086" unicode="&#x2086;" horiz-adv-x="339" 
d="M168 -121q-69 0 -111 42t-42 102q0 35 10.5 58t40.5 67l115 170h119l-102 -151q47 -4 84.5 -40.5t37.5 -96.5q0 -65 -41 -108t-111 -43zM168 -27q23 0 38.5 16.5t15.5 39.5t-15.5 39.5t-38.5 16.5q-26 0 -41 -16t-15 -40t15 -40t41 -16z" />
    <glyph glyph-name="uni2087" unicode="&#x2087;" horiz-adv-x="346" 
d="M138 -114h-111l192 337h-193v95h309v-85z" />
    <glyph glyph-name="uni2088" unicode="&#x2088;" horiz-adv-x="363" 
d="M182 -121q-67 0 -112 39.5t-45 99.5q0 64 52 100q-34 34 -34 89q0 48 38.5 83t100.5 35t99.5 -34.5t37.5 -83.5q0 -54 -35 -88q55 -36 55 -101q0 -59 -45.5 -99t-111.5 -40zM182 -32q25 0 40.5 16.5t15.5 38.5q0 21 -15.5 37t-40.5 16q-26 0 -41.5 -15.5t-15.5 -37.5
t15.5 -38.5t41.5 -16.5zM182 152q19 0 33 12t14 32q0 18 -14 31t-33 13q-20 0 -33.5 -12.5t-13.5 -31.5q0 -20 13 -32t34 -12z" />
    <glyph glyph-name="uni2089" unicode="&#x2089;" horiz-adv-x="339" 
d="M39 -114l102 151q-48 4 -85 40.5t-37 96.5q0 66 41.5 108.5t111.5 42.5q69 0 110.5 -42t41.5 -102q0 -35 -10.5 -58t-40.5 -67l-115 -170h-119zM172 119q24 0 39.5 16t15.5 40t-15.5 40t-39.5 16t-39.5 -16t-15.5 -40t15.5 -40t39.5 -16z" />
    <glyph glyph-name="Euro" unicode="&#x20ac;" horiz-adv-x="852" 
d="M111 392h-83l21 57h72q30 121 129 197t229 76q114 0 203 -58.5t131 -163.5h-157q-61 87 -176 87q-77 0 -133.5 -37.5t-81.5 -100.5h357l-20 -57h-352q-2 -24 -2 -37q0 -29 2 -36h326l-19 -56h-293q25 -64 82 -102t134 -38q115 0 176 87h157q-42 -105 -131 -163.5
t-203 -58.5q-131 0 -229.5 76t-128.5 199h-93l21 56h62q-1 12 -1 36q0 25 1 37z" />
    <glyph glyph-name="uni20B4" unicode="&#x20b4;" horiz-adv-x="609" 
d="M40 277v57h526v-57h-328q-37 -25 -37 -72q0 -38 28.5 -63t73.5 -25q97 0 105 90h137q-6 -114 -74 -166.5t-169 -52.5q-102 0 -170 57t-68 139q0 57 30 93h-54zM40 389v57h328q32 24 32 66q0 38 -23 59.5t-66 21.5q-76 0 -93 -72h-137q8 93 72.5 147t161.5 54
q100 0 160.5 -53t60.5 -138q0 -50 -23 -85h53v-57h-526z" />
    <glyph glyph-name="uni20B8" unicode="&#x20b8;" horiz-adv-x="588" 
d="M225 0v463h-194v135h526v-135h-195v-463h-137zM31 653v57h526v-57h-526z" />
    <glyph glyph-name="uni20BD" unicode="&#x20bd;" horiz-adv-x="619" 
d="M49 255v132h85v323h214q106 0 174 -63.5t68 -164.5q0 -103 -68 -165t-174 -62h-77v-69h162v-58h-162v-128h-137v128h-85v58h85v69h-85zM271 387h75q48 0 75.5 24.5t27.5 70.5q0 47 -27.5 71t-75.5 24h-75v-190z" />
    <glyph glyph-name="uni2116" unicode="&#x2116;" horiz-adv-x="1101" 
d="M713 0h-125l-364 463v-463h-145v710h125l364 -463v463h145v-710zM910 405q-63 0 -108.5 46t-45.5 109t45.5 109t108.5 46t109 -46t46 -109t-46 -109t-109 -46zM761 269v90h299v-90h-299zM911 495q26 0 45 19t19 46t-19 46t-45 19q-27 0 -46 -19t-19 -46t19 -46t46 -19z
" />
    <glyph glyph-name="uni2117" unicode="&#x2117;" horiz-adv-x="807" 
d="M403 -12q-151 0 -258.5 108t-107.5 259t107.5 259t258.5 108t259 -108t108 -259t-108 -259t-259 -108zM403 72q117 0 200 83t83 200t-83 200t-200 83q-116 0 -199 -83t-83 -200t83 -200t199 -83zM559 413q0 -54 -37 -90.5t-93 -36.5h-43v-117h-84v371h127q56 0 93 -36.5
t37 -90.5zM479 413q0 21 -14.5 35t-36.5 14h-42v-97h42q22 0 36.5 14t14.5 34z" />
    <glyph glyph-name="trademark" unicode="&#x2122;" horiz-adv-x="811" 
d="M389 348v362h98l79 -122l78 122h99v-362h-101v186l-76 -116l-77 118v-188h-100zM129 348v258h-97v104h300v-104h-97v-258h-106z" />
    <glyph glyph-name="uni2150" unicode="&#x2150;" horiz-adv-x="847" 
d="M100 278v336h-95l68 96h124v-432h-97zM181 0h-118l500 710h118zM640 1h-111l192 337h-193v95h309v-85z" />
    <glyph glyph-name="uni2151" unicode="&#x2151;" horiz-adv-x="799" 
d="M100 278v336h-95l68 96h124v-432h-97zM181 0h-118l500 710h118zM499 1l102 151q-48 4 -85 40.5t-37 96.5q0 66 41.5 108.5t111.5 42.5q69 0 110.5 -42t41.5 -102q0 -35 -10.5 -58t-40.5 -67l-115 -170h-119zM632 234q24 0 39.5 16t15.5 40t-15.5 40t-39.5 16t-39.5 -16
t-15.5 -40t15.5 -40t39.5 -16z" />
    <glyph glyph-name="uni2152" unicode="&#x2152;" horiz-adv-x="1092" 
d="M100 278v336h-95l68 96h124v-432h-97zM181 0h-118l500 710h118zM560 1v336h-95l68 96h124v-432h-97zM898 -6q-74 0 -119.5 49t-45.5 125v98q0 76 45.5 125t119.5 49q72 0 118 -49t46 -125v-98q0 -76 -46 -125t-118 -49zM898 90q30 0 48.5 21t18.5 57v98q0 36 -18.5 57
t-48.5 21t-49 -21t-19 -57v-98q0 -36 19 -57t49 -21z" />
    <glyph glyph-name="onethird" unicode="&#x2153;" horiz-adv-x="824" 
d="M100 278v336h-95l68 96h124v-432h-97zM181 0h-118l500 710h118zM645 -6q-65 0 -113.5 39.5t-50.5 111.5h97q6 -55 67 -55q26 0 41 12.5t15 32.5q0 21 -16.5 34t-43.5 13h-39v77h33q53 0 53 44q0 18 -13 29.5t-33 11.5q-24 0 -39.5 -14.5t-15.5 -35.5h-97q0 66 46.5 106
t106.5 40q68 0 105.5 -37t37.5 -91q0 -58 -43 -93q23 -11 39 -35.5t16 -58.5q0 -57 -42.5 -94t-110.5 -37z" />
    <glyph glyph-name="twothirds" unicode="&#x2154;" horiz-adv-x="922" 
d="M325 374v-96h-300v32q0 18 4 35t8 29.5t15 26.5t17 21.5t22.5 21t21.5 17.5t25 17.5t24 16.5q63 41 63 82q0 19 -12 31.5t-34 12.5q-25 0 -40 -15t-14 -35h-98q0 63 44.5 104.5t110.5 41.5q58 0 99.5 -35.5t41.5 -100.5q0 -55 -23 -90t-64 -63q-2 -1 -21.5 -13t-32.5 -22
t-18 -19h161zM279 0h-118l500 710h118zM743 -6q-65 0 -113.5 39.5t-50.5 111.5h97q6 -55 67 -55q26 0 41 12.5t15 32.5q0 21 -16.5 34t-43.5 13h-39v77h33q53 0 53 44q0 18 -13 29.5t-33 11.5q-24 0 -39.5 -14.5t-15.5 -35.5h-97q0 66 46.5 106t106.5 40q68 0 105.5 -37
t37.5 -91q0 -58 -43 -93q23 -11 39 -35.5t16 -58.5q0 -57 -42.5 -94t-110.5 -37z" />
    <glyph glyph-name="uni2155" unicode="&#x2155;" horiz-adv-x="810" 
d="M100 278v336h-95l68 96h124v-432h-97zM181 0h-118l500 710h118zM640 -6q-65 0 -112.5 38t-49.5 98h100q12 -40 59 -40q23 0 38.5 16t15.5 40q0 23 -16 38.5t-39 15.5q-46 0 -58 -45l-87 26l47 252h217v-95h-141l-12 -61q24 11 53 11q61 0 97 -41t36 -107q0 -64 -41 -105
t-107 -41z" />
    <glyph glyph-name="uni2156" unicode="&#x2156;" horiz-adv-x="907" 
d="M325 374v-96h-300v32q0 18 4 35t8 29.5t15 26.5t17 21.5t22.5 21t21.5 17.5t25 17.5t24 16.5q63 41 63 82q0 19 -12 31.5t-34 12.5q-25 0 -40 -15t-14 -35h-98q0 63 44.5 104.5t110.5 41.5q58 0 99.5 -35.5t41.5 -100.5q0 -55 -23 -90t-64 -63q-2 -1 -21.5 -13t-32.5 -22
t-18 -19h161zM279 0h-118l500 710h118zM738 -6q-65 0 -112.5 38t-49.5 98h100q12 -40 59 -40q23 0 38.5 16t15.5 40q0 23 -16 38.5t-39 15.5q-46 0 -58 -45l-87 26l47 252h217v-95h-141l-12 -61q24 11 53 11q61 0 97 -41t36 -107q0 -64 -41 -105t-107 -41z" />
    <glyph glyph-name="uni2157" unicode="&#x2157;" horiz-adv-x="894" 
d="M185 271q-65 0 -113.5 39.5t-50.5 111.5h97q6 -55 67 -55q26 0 41 12.5t15 32.5q0 21 -16.5 34t-43.5 13h-39v77h33q53 0 53 44q0 18 -13 29.5t-33 11.5q-24 0 -39.5 -14.5t-15.5 -35.5h-97q0 66 46.5 106t106.5 40q68 0 105.5 -37t37.5 -91q0 -58 -43 -93
q23 -11 39 -35.5t16 -58.5q0 -57 -42.5 -94t-110.5 -37zM265 0h-118l500 710h118zM724 -6q-65 0 -112.5 38t-49.5 98h100q12 -40 59 -40q23 0 38.5 16t15.5 40q0 23 -16 38.5t-39 15.5q-46 0 -58 -45l-87 26l47 252h217v-95h-141l-12 -61q24 11 53 11q61 0 97 -41t36 -107
q0 -64 -41 -105t-107 -41z" />
    <glyph glyph-name="uni2158" unicode="&#x2158;" horiz-adv-x="924" 
d="M223 278v90h-208v79l218 263h88v-253h55v-89h-55v-90h-98zM133 457h90v108zM296 0h-118l500 710h118zM755 -6q-65 0 -112.5 38t-49.5 98h100q12 -40 59 -40q23 0 38.5 16t15.5 40q0 23 -16 38.5t-39 15.5q-46 0 -58 -45l-87 26l47 252h217v-95h-141l-12 -61q24 11 53 11
q61 0 97 -41t36 -107q0 -64 -41 -105t-107 -41z" />
    <glyph glyph-name="uni2159" unicode="&#x2159;" horiz-adv-x="767" 
d="M100 278v336h-95l68 96h124v-432h-97zM181 0h-118l500 710h118zM596 -6q-69 0 -111 42t-42 102q0 35 10.5 58t40.5 67l115 170h119l-102 -151q47 -4 84.5 -40.5t37.5 -96.5q0 -65 -41 -108t-111 -43zM596 88q23 0 38.5 16.5t15.5 39.5t-15.5 39.5t-38.5 16.5
q-26 0 -41 -16t-15 -40t15 -40t41 -16z" />
    <glyph glyph-name="uni215A" unicode="&#x215a;" horiz-adv-x="837" 
d="M181 271q-65 0 -112.5 38t-49.5 98h100q12 -40 59 -40q23 0 38.5 16t15.5 40q0 23 -16 38.5t-39 15.5q-46 0 -58 -45l-87 26l47 252h217v-95h-141l-12 -61q24 11 53 11q61 0 97 -41t36 -107q0 -64 -41 -105t-107 -41zM251 0h-118l500 710h118zM666 -6q-69 0 -111 42
t-42 102q0 35 10.5 58t40.5 67l115 170h119l-102 -151q47 -4 84.5 -40.5t37.5 -96.5q0 -65 -41 -108t-111 -43zM666 88q23 0 38.5 16.5t15.5 39.5t-15.5 39.5t-38.5 16.5q-26 0 -41 -16t-15 -40t15 -40t41 -16z" />
    <glyph glyph-name="oneeighth" unicode="&#x215b;" horiz-adv-x="823" 
d="M100 278v336h-95l68 96h124v-432h-97zM181 0h-118l500 710h118zM642 -6q-67 0 -112 39.5t-45 99.5q0 64 52 100q-34 34 -34 89q0 48 38.5 83t100.5 35t99.5 -34.5t37.5 -83.5q0 -54 -35 -88q55 -36 55 -101q0 -59 -45.5 -99t-111.5 -40zM642 83q25 0 40.5 16.5t15.5 38.5
q0 21 -15.5 37t-40.5 16q-26 0 -41.5 -15.5t-15.5 -37.5t15.5 -38.5t41.5 -16.5zM642 267q19 0 33 12t14 32q0 18 -14 31t-33 13q-20 0 -33.5 -12.5t-13.5 -31.5q0 -20 13 -32t34 -12z" />
    <glyph glyph-name="threeeighths" unicode="&#x215c;" horiz-adv-x="907" 
d="M185 271q-65 0 -113.5 39.5t-50.5 111.5h97q6 -55 67 -55q26 0 41 12.5t15 32.5q0 21 -16.5 34t-43.5 13h-39v77h33q53 0 53 44q0 18 -13 29.5t-33 11.5q-24 0 -39.5 -14.5t-15.5 -35.5h-97q0 66 46.5 106t106.5 40q68 0 105.5 -37t37.5 -91q0 -58 -43 -93
q23 -11 39 -35.5t16 -58.5q0 -57 -42.5 -94t-110.5 -37zM265 0h-118l500 710h118zM726 -6q-67 0 -112 39.5t-45 99.5q0 64 52 100q-34 34 -34 89q0 48 38.5 83t100.5 35t99.5 -34.5t37.5 -83.5q0 -54 -35 -88q55 -36 55 -101q0 -59 -45.5 -99t-111.5 -40zM726 83
q25 0 40.5 16.5t15.5 38.5q0 21 -15.5 37t-40.5 16q-26 0 -41.5 -15.5t-15.5 -37.5t15.5 -38.5t41.5 -16.5zM726 267q19 0 33 12t14 32q0 18 -14 31t-33 13q-20 0 -33.5 -12.5t-13.5 -31.5q0 -20 13 -32t34 -12z" />
    <glyph glyph-name="fiveeighths" unicode="&#x215d;" horiz-adv-x="893" 
d="M181 271q-65 0 -112.5 38t-49.5 98h100q12 -40 59 -40q23 0 38.5 16t15.5 40q0 23 -16 38.5t-39 15.5q-46 0 -58 -45l-87 26l47 252h217v-95h-141l-12 -61q24 11 53 11q61 0 97 -41t36 -107q0 -64 -41 -105t-107 -41zM251 0h-118l500 710h118zM712 -6q-67 0 -112 39.5
t-45 99.5q0 64 52 100q-34 34 -34 89q0 48 38.5 83t100.5 35t99.5 -34.5t37.5 -83.5q0 -54 -35 -88q55 -36 55 -101q0 -59 -45.5 -99t-111.5 -40zM712 83q25 0 40.5 16.5t15.5 38.5q0 21 -15.5 37t-40.5 16q-26 0 -41.5 -15.5t-15.5 -37.5t15.5 -38.5t41.5 -16.5zM712 267
q19 0 33 12t14 32q0 18 -14 31t-33 13q-20 0 -33.5 -12.5t-13.5 -31.5q0 -20 13 -32t34 -12z" />
    <glyph glyph-name="seveneighths" unicode="&#x215e;" horiz-adv-x="830" 
d="M138 278h-111l192 337h-193v95h309v-85zM187 0h-118l500 710h118zM648 -6q-67 0 -112 39.5t-45 99.5q0 64 52 100q-34 34 -34 89q0 48 38.5 83t100.5 35t99.5 -34.5t37.5 -83.5q0 -54 -35 -88q55 -36 55 -101q0 -59 -45.5 -99t-111.5 -40zM648 83q25 0 40.5 16.5
t15.5 38.5q0 21 -15.5 37t-40.5 16q-26 0 -41.5 -15.5t-15.5 -37.5t15.5 -38.5t41.5 -16.5zM648 267q19 0 33 12t14 32q0 18 -14 31t-33 13q-20 0 -33.5 -12.5t-13.5 -31.5q0 -20 13 -32t34 -12z" />
    <glyph glyph-name="uni215F" unicode="&#x215f;" horiz-adv-x="460" 
d="M100 278v336h-95l68 96h124v-432h-97zM181 0h-118l500 710h118z" />
    <glyph glyph-name="arrowleft" unicode="&#x2190;" horiz-adv-x="817" 
d="M346 -57l-306 306l306 306l75 -78l-172 -173h511v-110h-511l172 -173z" />
    <glyph glyph-name="arrowup" unicode="&#x2191;" horiz-adv-x="696" 
d="M293 0v513l-173 -173l-78 76l306 306l306 -306l-78 -76l-173 173v-513h-110z" />
    <glyph glyph-name="arrowright" unicode="&#x2192;" horiz-adv-x="817" 
d="M471 -57l-75 78l172 173h-511v110h511l-172 173l75 78l306 -306z" />
    <glyph glyph-name="arrowdown" unicode="&#x2193;" horiz-adv-x="692" 
d="M652 294l-306 -306l-306 306l78 76l173 -173v513h110v-513l173 173z" />
    <glyph glyph-name="uni2196" unicode="&#x2196;" horiz-adv-x="722" 
d="M678 65l-76 -77l-399 398v-247h-110v433h433v-110h-246z" />
    <glyph glyph-name="uni2197" unicode="&#x2197;" horiz-adv-x="722" 
d="M120 -12l-76 77l398 397h-247v110h433v-433h-109v247z" />
    <glyph glyph-name="uni2198" unicode="&#x2198;" horiz-adv-x="717" 
d="M197 0v110h246l-398 397l77 77l399 -398v247h109v-433h-433z" />
    <glyph glyph-name="uni2199" unicode="&#x2199;" horiz-adv-x="717" 
d="M196 186l399 398l77 -77l-398 -397h246v-110h-433v433h109v-247z" />
    <glyph glyph-name="uni21B0" unicode="&#x21b0;" horiz-adv-x="839" 
d="M760 -209h-110v403h-401l172 -173l-75 -78l-306 306l306 306l75 -78l-172 -173h511v-513z" />
    <glyph glyph-name="uni21B1" unicode="&#x21b1;" horiz-adv-x="839" 
d="M79 -209v513h511l-173 173l76 78l306 -306l-306 -306l-76 78l173 173h-401v-403h-110z" />
    <glyph glyph-name="uni21B2" unicode="&#x21b2;" horiz-adv-x="849" 
d="M346 -57l-306 306l306 306l76 -78l-173 -173h401v406h110v-516h-511l173 -173z" />
    <glyph glyph-name="uni21B3" unicode="&#x21b3;" horiz-adv-x="849" 
d="M809 249l-306 -306l-75 78l172 173h-511v516h110v-406h401l-172 173l75 78z" />
    <glyph glyph-name="minus" unicode="&#x2212;" horiz-adv-x="541" 
d="M60 230v119h421v-119h-421z" />
    <glyph glyph-name="uniF6D1" unicode="&#xf6d1;" 
d="M0 750q-74 0 -124 48.5t-50 126.5h90q0 -43 23 -68.5t61 -25.5t61 25.5t23 68.5h90q0 -78 -50 -126.5t-124 -48.5z" />
    <glyph glyph-name="uniF6D4" unicode="&#xf6d4;" 
d="M0 558q-74 0 -124 48t-50 126v18h90v-18q0 -46 23.5 -70.5t60.5 -24.5t60.5 24.5t23.5 70.5v18h90v-18q0 -78 -50 -126t-124 -48z" />
    <glyph glyph-name="f_f" unicode="&#xfb00;" horiz-adv-x="788" 
d="M119 0v380h-101v120h101v75q0 88 53.5 134.5t137.5 46.5q51 0 87 -11v-121q-9 8 -56 8q-45 0 -65 -19.5t-20 -64.5v-48h110v-120h-110v-380h-137zM495 0v380h-80v120h80v75q0 88 53.5 134.5t137.5 46.5q51 0 87 -11v-121q-18 8 -57 8q-45 0 -64.5 -19.5t-19.5 -64.5v-48
h141v-120h-141v-380h-137z" />
    <glyph glyph-name="fi" unicode="&#xfb01;" horiz-adv-x="681" 
d="M119 0v380h-101v120h101v65q0 89 54 140t137 51q51 0 87 -11v-121q-24 9 -56 9q-45 0 -65 -19.5t-20 -65.5v-48h141v-120h-141v-380h-137zM546 582q-35 0 -61 25.5t-26 61.5t26 61.5t61 25.5q37 0 62.5 -25.5t25.5 -61.5t-25.5 -61.5t-62.5 -25.5zM478 0v500h137v-500
h-137z" />
    <glyph glyph-name="fl" unicode="&#xfb02;" horiz-adv-x="681" 
d="M119 0v380h-101v120h101v65q0 89 54 140t137 51q51 0 87 -11v-121q-24 9 -56 9q-45 0 -65 -19.5t-20 -65.5v-48h141v-120h-141v-380h-137zM478 0v750h137v-750h-137z" />
    <glyph glyph-name="f_f_i" unicode="&#xfb03;" horiz-adv-x="1057" 
d="M922 582q-35 0 -61 25.5t-26 61.5t26 61.5t61 25.5q37 0 62.5 -25.5t25.5 -61.5t-25.5 -61.5t-62.5 -25.5zM854 0v500h137v-500h-137zM119 0v380h-101v120h101v75q0 88 53.5 134.5t137.5 46.5q51 0 87 -11v-121q-9 8 -56 8q-45 0 -65 -19.5t-20 -64.5v-48h110v-120h-110
v-380h-137zM495 0v380h-80v120h80v75q0 88 53.5 134.5t137.5 46.5q51 0 87 -11v-121q-18 8 -57 8q-45 0 -64.5 -19.5t-19.5 -64.5v-48h141v-120h-141v-380h-137z" />
    <glyph glyph-name="f_f_l" unicode="&#xfb04;" horiz-adv-x="1057" 
d="M854 0v750h137v-750h-137zM119 0v380h-101v120h101v75q0 88 53.5 134.5t137.5 46.5q51 0 87 -11v-121q-9 8 -56 8q-45 0 -65 -19.5t-20 -64.5v-48h110v-120h-110v-380h-137zM495 0v380h-80v120h80v75q0 88 53.5 134.5t137.5 46.5q51 0 87 -11v-121q-18 8 -57 8
q-45 0 -64.5 -19.5t-19.5 -64.5v-48h141v-120h-141v-380h-137z" />
    <glyph glyph-name="uniFEFF" unicode="&#xfeff;" 
 />
    <glyph glyph-name="NULL" 
 />
    <glyph glyph-name="CR" horiz-adv-x="228" 
 />
    <glyph glyph-name="L_periodcentered" horiz-adv-x="558" 
d="M79 0v710h145v-572h304v-138h-449zM423 349q-32 0 -54 22t-22 53q0 32 22 54t54 22q31 0 53 -22t22 -54q0 -31 -22 -53t-53 -22z" />
    <glyph glyph-name="l_periodcentered" horiz-adv-x="404" 
d="M66 0v750h137v-750h-137zM337 298q-32 0 -54 22t-22 53q0 32 22 54t54 22q31 0 53 -22t22 -54q0 -31 -22 -53t-53 -22z" />
    <glyph glyph-name="_470" 
d="M64 500h-123v123h123v-123z" />
    <glyph glyph-name="_471" 
d="M161 197h-322v90h322v-90z" />
    <glyph glyph-name="_472" 
d="M-190 208v87h380v-87h-380z" />
    <glyph glyph-name="_473" 
d="M-196 -90v90h393v-90h-393z" />
    <glyph glyph-name="_474" 
d="M-45 -123v123h-24v120h146v-243h-122z" />
    <glyph glyph-name="_476" 
d="M70 710h-131v148h131v-148z" />
    <glyph glyph-name="_477" 
d="M98 401q75 0 129 39v-127q-53 -38 -129 -38q-37 0 -101 19t-95 19q-74 0 -129 -38v126q54 39 129 39q46 0 105.5 -19.5t90.5 -19.5z" />
    <glyph glyph-name="_478" 
d="M-198 292v128h397v-128h-397z" />
    <glyph glyph-name="_479" 
d="M-298 288v128h596v-128h-596z" />
    <glyph glyph-name="_480" 
d="M219 299v-129h-438v129h438z" />
    <glyph glyph-name="_481" 
d="M-30 -148v148h-24v138h155v-286h-131z" />
    <glyph glyph-name="_505" horiz-adv-x="535" 
d="M234 675l129 48l-131 -252l233 10l-415 -492l242 402l-205 -12zM455 465q5 0 5 -5q0 4 4 5q-4 0 -4 5t5 5t5 -5t-4 -5q3 -1 4 -4q0 4 5 4t5 -5t-4 -5q4 -1 4 -5q0 -5 -4 -5q3 -1 4 -4q0 4 5 4t5 -5t-4 -5q4 -1 4 -5q0 -5 -5 -5t-5 4q-1 -4 -4 -4q4 -1 4 -5q0 -5 -5 -5
t-5 4q-1 -4 -4 -4q4 -1 4 -5q0 -5 -5 -5t-5 4q-1 -4 -4 -4q4 -1 4 -5q0 -5 -5 -5t-5 4q-1 -4 -4 -4q4 -1 4 -5q0 -5 -5 -5t-5 4q-1 -4 -4 -4q4 -1 4 -5q0 -5 -5 -5t-5 4q-1 -4 -4 -4q4 -1 4 -5q0 -5 -5 -5t-5 4q-1 -4 -4 -4q4 -1 4 -5q0 -5 -4 -5q4 -1 4 -5q0 -5 -5 -5t-5 4
q-1 -4 -4 -4q4 -1 4 -5q0 -5 -5 -5t-5 4q-1 -4 -4 -4q4 -1 4 -5q0 -5 -5 -5t-5 4q-1 -4 -4 -4q4 -1 4 -5q0 -5 -5 -5t-5 4q-1 -4 -4 -4q4 -1 4 -5q0 -5 -5 -5t-5 4q-1 -4 -4 -4q4 -1 4 -5q0 -5 -5 -5t-5 4q-1 -4 -4 -4q4 -1 4 -5q0 -5 -5 -5t-5 4q-1 -4 -4 -4q4 -1 4 -5
q0 -5 -5 -5t-5 4q-1 -4 -4 -4q4 -1 4 -5q0 -5 -5 -5t-5 4q-1 -4 -4 -4q4 -1 4 -5q0 -5 -5 -5t-5 4q-1 -4 -4 -4q4 -1 4 -5q0 -5 -5 -5t-5 4q-1 -4 -4 -4q4 -1 4 -5q0 -5 -5 -5t-5 4q-1 -4 -4 -4q4 -1 4 -5q0 -5 -5 -5t-5 4q-1 -4 -4 -4q4 -1 4 -5q0 -5 -4 -5q4 -1 4 -5
q0 -5 -5 -5t-5 4q-1 -4 -4 -4q4 -1 4 -5q0 -5 -5 -5t-5 4q-1 -4 -4 -4q4 -1 4 -5q0 -5 -5 -5t-5 4q-1 -4 -4 -4q4 -1 4 -5q0 -5 -5 -5t-5 4q-1 -4 -4 -4q4 -1 4 -5q0 -5 -5 -5t-5 4q-1 -4 -4 -4q4 -1 4 -5q0 -5 -5 -5t-5 4q-1 -4 -4 -4q4 -1 4 -5q0 -5 -5 -5t-5 4
q-1 -4 -4 -4q4 -1 4 -5q0 -5 -5 -5t-5 4q-1 -4 -4 -4q4 -1 4 -5q0 -5 -5 -5t-5 4q-1 -4 -4 -4q4 -1 4 -5q0 -5 -5 -5t-5 4q-1 -4 -4 -4q4 -1 4 -5q0 -5 -5 -5t-5 4q-1 -4 -4 -4q4 -1 4 -5q0 -5 -4 -5q4 -1 4 -5q0 -5 -5 -5t-5 4q-1 -4 -4 -4q4 -1 4 -5q0 -5 -5 -5t-5 4
q-1 -4 -4 -4q4 -1 4 -5q0 -5 -5 -5t-5 4q-1 -4 -4 -4q4 -1 4 -5q0 -5 -5 -5t-5 4q-1 -4 -4 -4q4 -1 4 -5q0 -5 -5 -5t-5 4q-1 -4 -4 -4q4 -1 4 -5q0 -5 -5 -5t-5 4q-1 -4 -4 -4q4 -1 4 -5q0 -5 -5 -5t-5 4q-1 -4 -4 -4q4 -1 4 -5q0 -5 -5 -5t-5 4q-1 -4 -4 -4q4 -1 4 -5
q0 -5 -5 -5t-5 4q-1 -4 -4 -4q4 -1 4 -5q0 -5 -5 -5t-5 4q-1 -3 -4 -4q4 0 4 -5t-5 -5t-5 4q-1 -3 -4 -4q4 0 4 -5t-5 -5t-5 5t4 5q-4 1 -4 5q0 5 5 5t5 -5q0 5 4 5q-4 1 -4 5t4 5q-4 0 -4 5t5 5t5 -5q0 4 4 5q-4 0 -4 5t5 5q4 0 5 -4q0 3 4 4q-4 0 -4 5t5 5q4 0 5 -4
q0 3 4 4q-4 0 -4 5t5 5q4 0 5 -4q0 3 4 4q-4 0 -4 5t5 5t5 -5q0 4 4 5q-4 0 -4 5t5 5t5 -5q0 4 4 5q-4 0 -4 5q0 4 4 5q-4 0 -4 5t5 5t5 -5q0 4 4 5q-4 0 -4 5t5 5q4 0 5 -4q0 3 4 4q-4 0 -4 5t5 5q4 0 5 -4q0 3 4 4q-4 0 -4 5t5 5t5 -5q0 4 4 5q-4 0 -4 5t5 5t5 -5q0 4 4 5
q-4 0 -4 5q0 4 4 5q-4 0 -4 5t5 5q4 0 5 -4q0 3 4 4q-4 0 -4 5t5 5t5 -5q0 4 4 5q-4 0 -4 5t5 5t5 -5q0 4 4 5q-4 0 -4 5t5 5t5 -5q0 4 4 5q-4 0 -4 5t5 5t5 -5q0 4 4 5q-4 0 -4 5q0 4 4 5q-4 0 -4 5t5 5t5 -5q0 4 4 5q-4 0 -4 5t5 5q4 0 5 -4q0 3 4 4q-4 0 -4 5t5 5t5 -5
q0 4 4 5q-4 0 -4 5t5 5t5 -5q0 4 4 5q-4 0 -4 5t5 5t5 -5q0 4 4 5q-4 0 -4 5t5 5t5 -5q0 4 4 5q-4 0 -4 5q0 4 4 5q-4 0 -4 5t5 5t5 -5q0 4 4 5q-4 0 -4 5t5 5q4 0 5 -4q0 3 4 4q-4 0 -4 5t5 5t5 -5q0 4 4 5q-4 0 -4 5t5 5q4 0 5 -4q0 3 4 4q-4 0 -4 5t5 5q4 0 5 -4q0 3 4 4
q-4 0 -4 5q0 4 4 5q-4 0 -4 5t5 5t5 -5q0 4 4 5q-4 0 -4 5t5 5t5 -5q0 4 4 5q-4 0 -4 5t5 5t5 -5q0 4 4 5q-4 0 -4 5t5 5t5 -5q0 4 4 5q-4 0 -4 5t5 5t5 -5q0 4 4 5q-4 0 -4 5q0 4 4 5q-4 0 -4 5t5 5t5 -5q0 4 4 5q-4 0 -4 5t5 5q4 0 5 -4q0 3 4 4q-4 0 -4 5t5 5q4 0 5 -4
q0 3 4 4q-4 0 -4 5t5 5q4 0 5 -4q0 3 4 4q-4 0 -4 5t5 5t5 -5q0 4 4 5q-4 0 -4 5t5 5q4 0 5 -4q0 3 4 4q-4 0 -4 5q0 4 4 5q-4 0 -4 5t5 5zM355 695q4 0 5 -4q0 3 4 4q-4 0 -4 5q0 4 4 5q-4 0 -4 5t5 5t5 -5t-4 -5q3 -1 4 -4q0 4 5 4t5 -5t-4 -5q3 -1 4 -4q0 4 5 4t5 -5
t-4 -5q4 -1 4 -5q0 -5 -5 -5t-5 4q-1 -4 -4 -4q4 -1 4 -5q0 -5 -4 -5q4 -1 4 -5q0 -5 -5 -5t-5 4q-1 -4 -4 -4q4 -1 4 -5q0 -5 -5 -5t-5 4q-1 -4 -4 -4q4 -1 4 -5q0 -5 -4 -5q4 -1 4 -5q0 -5 -5 -5t-5 4q-1 -4 -4 -4q4 -1 4 -5q0 -5 -4 -5q4 -1 4 -5q0 -5 -5 -5t-5 4
q-1 -4 -4 -4q4 -1 4 -5q0 -5 -4 -5q4 -1 4 -5q0 -5 -5 -5t-5 4q-1 -4 -4 -4q4 -1 4 -5q0 -5 -5 -5t-5 4q-1 -4 -4 -4q4 -1 4 -5q0 -5 -4 -5q4 -1 4 -5q0 -5 -5 -5t-5 4q-1 -4 -4 -4q4 -1 4 -5q0 -5 -4 -5q4 -1 4 -5q0 -5 -5 -5t-5 4q-1 -4 -4 -4q4 -1 4 -5q0 -5 -4 -5
q4 -1 4 -5q0 -5 -5 -5t-5 4q-1 -4 -4 -4q4 -1 4 -5q0 -5 -4 -5q4 -1 4 -5q0 -5 -5 -5t-5 4q-1 -4 -4 -4q4 -1 4 -5q0 -5 -4 -5q4 -1 4 -5q0 -5 -5 -5t-5 4q-1 -4 -5 -4q-5 0 -5 4q-1 -4 -5 -4q-5 0 -5 4q-1 -4 -5 -4q-5 0 -5 5t5 5q4 0 5 -4q0 3 4 4q-4 0 -4 5q0 4 4 5
q-4 0 -4 5t5 5q4 0 5 -4q0 3 4 4q-4 0 -4 5q0 4 4 5q-4 0 -4 5t5 5t5 -5q0 4 4 5q-4 0 -4 5q0 4 4 5q-4 0 -4 5t5 5q4 0 5 -4q0 3 4 4q-4 0 -4 5q0 4 4 5q-4 0 -4 5t5 5t5 -5q0 4 4 5q-4 0 -4 5q0 4 4 5q-4 0 -4 5t5 5q4 0 5 -4q0 3 4 4q-4 0 -4 5q0 4 4 5q-4 0 -4 5t5 5
t5 -5q0 4 4 5q-4 0 -4 5t5 5q4 0 5 -4q0 3 4 4q-4 0 -4 5q0 4 4 5q-4 0 -4 5t5 5q4 0 5 -4q0 3 4 4q-4 0 -4 5q0 4 4 5q-4 0 -4 5t5 5q4 0 5 -4q0 3 4 4q-4 0 -4 5q0 4 4 5q-4 0 -4 5t5 5t5 -5q0 4 4 5q-4 0 -4 5q0 4 4 5q-4 0 -4 5t5 5zM275 385q5 0 5 -5t-5 -5t-5 4
q-1 -4 -4 -4q4 -1 4 -5q0 -5 -4 -5q4 -1 4 -5q0 -5 -5 -5t-5 4q-1 -4 -5 -4q-5 0 -5 4q-1 -4 -5 -4q-5 0 -5 4q-1 -4 -5 -4q-5 0 -5 4q-1 -4 -5 -4q-5 0 -5 4q-1 -4 -5 -4q-5 0 -5 4q-1 -4 -5 -4q-5 0 -5 4q-1 -4 -5 -4q-5 0 -5 4q-1 -4 -4 -4q4 -1 4 -5q0 -5 -5 -5t-5 4
q-1 -4 -5 -4q-5 0 -5 4q-1 -4 -5 -4q-5 0 -5 4q-1 -4 -5 -4q-5 0 -5 4q-1 -4 -5 -4q-5 0 -5 4q-1 -4 -5 -4q-5 0 -5 4q-1 -4 -5 -4q-5 0 -5 4q-1 -4 -5 -4q-5 0 -5 4q-1 -4 -5 -4q-5 0 -5 5q0 4 4 5q-4 0 -4 4q-1 -4 -5 -4q-5 0 -5 5q0 4 4 5q-4 0 -4 5t5 5t5 -5q0 5 5 5
t5 -5q0 5 5 5q4 0 5 -4q0 4 5 4t5 -5q0 5 5 5q4 0 5 -4q0 4 5 4t5 -5q0 5 5 5t5 -5q0 5 5 5t5 -5q0 5 5 5t5 -5q0 5 5 5t5 -5q0 4 4 5q-4 0 -4 5t5 5q4 0 5 -4q0 4 5 4t5 -5q0 5 5 5q4 0 5 -4q0 4 5 4t5 -5q0 5 5 5t5 -5q0 5 5 5q4 0 5 -4q0 4 5 4q4 0 5 -4q0 4 5 4
q4 0 5 -4q0 4 5 4zM110 39q-1 -4 -4 -4q4 -1 4 -5q0 4 4 5q-4 0 -4 4zM120 49q-1 -4 -4 -4q4 -1 4 -5q0 4 4 5q-4 0 -4 4zM130 59q-1 -4 -4 -4q4 -1 4 -5q0 4 4 5q-4 0 -4 4zM140 69q-1 -4 -4 -4q3 -1 4 -4q0 3 4 4q-4 0 -4 4zM140 79q-1 -4 -4 -4q3 -1 4 -4q0 3 4 4
q-4 0 -4 4zM154 75q-4 0 -4 4q-1 -4 -4 -4q3 -1 4 -4q0 3 4 4zM160 89q-1 -4 -4 -4q3 -1 4 -4q0 3 4 4q-4 0 -4 4zM154 85q-4 0 -4 4q-1 -4 -4 -4q3 -1 4 -4q0 3 4 4zM170 99q-1 -4 -4 -4q4 -1 4 -5q0 4 4 5q-4 0 -4 4zM160 99q-1 -4 -4 -4q3 -1 4 -4q0 3 4 4q-4 0 -4 4z
M170 109q-1 -4 -4 -4q4 -1 4 -5q0 4 4 5q-4 0 -4 4zM180 119q-1 -4 -4 -4q4 -1 4 -5q0 4 4 5q-4 0 -4 4zM190 129q-1 -4 -4 -4q3 -1 4 -4q0 3 4 4q-4 0 -4 4zM260 369q-1 -4 -4 -4q3 -1 4 -4q0 3 4 4q-4 0 -4 4zM250 369q-1 -4 -4 -4q4 -1 4 -5q0 4 4 5q-4 0 -4 4zM240 369
q-1 -4 -4 -4q4 -1 4 -5q0 4 4 5q-4 0 -4 4zM230 369q-1 -4 -4 -4q4 -1 4 -5q0 4 4 5q-4 0 -4 4zM220 369q-1 -4 -4 -4q4 -1 4 -5q0 4 4 5q-4 0 -4 4zM260 379q-1 -4 -4 -4q3 -1 4 -4q0 3 4 4q-4 0 -4 4zM250 379q-1 -4 -4 -4q3 -1 4 -4q0 3 4 4q-4 0 -4 4zM240 379
q-1 -4 -4 -4q4 -1 4 -5q0 4 4 5q-4 0 -4 4zM230 379q-1 -4 -4 -4q3 -1 4 -4q0 3 4 4q-4 0 -4 4zM220 379q-1 -4 -4 -4q3 -1 4 -4q0 3 4 4q-4 0 -4 4zM180 359q-1 -4 -4 -4q3 -1 4 -4q0 3 4 4q-4 0 -4 4zM170 359q-1 -4 -4 -4q4 -1 4 -5q0 4 4 5q-4 0 -4 4zM160 359
q-1 -4 -4 -4q4 -1 4 -5q0 4 4 5q-4 0 -4 4zM210 369q-1 -4 -4 -4q4 -1 4 -5q0 4 4 5q-4 0 -4 4zM200 369q-1 -4 -4 -4q3 -1 4 -4q0 3 4 4q-4 0 -4 4zM190 369q-1 -4 -4 -4q4 -1 4 -5q0 4 4 5q-4 0 -4 4zM180 369q-1 -4 -4 -4q4 -1 4 -5q0 4 4 5q-4 0 -4 4zM170 369
q-1 -4 -4 -4q4 -1 4 -5q0 4 4 5q-4 0 -4 4zM160 369q-1 -4 -4 -4q4 -1 4 -5q0 4 4 5q-4 0 -4 4zM210 379q-1 -4 -4 -4q4 -1 4 -5q0 4 4 5q-4 0 -4 4zM200 379q-1 -4 -4 -4q3 -1 4 -4q0 3 4 4q-4 0 -4 4zM150 359q-1 -4 -4 -4q4 -1 4 -5q0 4 4 5q-4 0 -4 4zM140 359
q-1 -4 -4 -4q4 -1 4 -5q0 4 4 5q-4 0 -4 4zM130 359q-1 -4 -4 -4q4 -1 4 -5q0 4 4 5q-4 0 -4 4zM120 359q-1 -4 -4 -4q4 -1 4 -5q0 4 4 5q-4 0 -4 4zM110 359q-1 -4 -4 -4q4 -1 4 -5q0 4 4 5q-4 0 -4 4zM150 369q-1 -4 -4 -4q4 -1 4 -5q0 4 4 5q-4 0 -4 4zM140 369
q-1 -4 -4 -4q4 -1 4 -5q0 4 4 5q-4 0 -4 4zM130 369q-1 -4 -4 -4q4 -1 4 -5q0 4 4 5q-4 0 -4 4zM120 369q-1 -4 -4 -4q4 -1 4 -5q0 4 4 5q-4 0 -4 4zM110 369q-1 -4 -4 -4q4 -1 4 -5q0 4 4 5q-4 0 -4 4zM100 369q-1 -4 -4 -4q4 -1 4 -5q0 4 4 5q-4 0 -4 4zM410 369
q-1 -4 -4 -4q4 -1 4 -5q0 4 4 5q-4 0 -4 4zM200 139q-1 -4 -4 -4q4 -1 4 -5q0 4 4 5q-4 0 -4 4zM194 135q-4 0 -4 4q-1 -4 -4 -4q4 -1 4 -5q0 4 4 5zM210 149q-1 -4 -4 -4q4 -1 4 -5q0 4 4 5q-4 0 -4 4zM200 149q-1 -4 -4 -4q3 -1 4 -4q0 3 4 4q-4 0 -4 4zM220 159
q-1 -4 -4 -4q4 -1 4 -5q0 4 4 5q-4 0 -4 4zM210 159q-1 -4 -4 -4q4 -1 4 -5q0 4 4 5q-4 0 -4 4zM230 169q-1 -4 -4 -4q4 -1 4 -5q0 4 4 5q-4 0 -4 4zM220 169q-1 -4 -4 -4q4 -1 4 -5q0 4 4 5q-4 0 -4 4zM240 179q-1 -4 -4 -4q4 -1 4 -5q0 4 4 5q-4 0 -4 4zM230 179
q-1 -4 -4 -4q4 -1 4 -5q0 4 4 5q-4 0 -4 4zM240 189q-1 -4 -4 -4q4 -1 4 -5q0 4 4 5q-4 0 -4 4zM240 199q-1 -4 -4 -4q4 -1 4 -5q0 4 4 5q-4 0 -4 4zM254 185q-4 0 -4 4q-1 -4 -4 -4q3 -1 4 -4q0 3 4 4zM260 199q-1 -4 -4 -4q4 -1 4 -5q0 4 4 5q-4 0 -4 4zM254 195
q-4 0 -4 4q-1 -4 -4 -4q4 -1 4 -5q0 4 4 5zM270 209q-1 -4 -4 -4q4 -1 4 -5q0 4 4 5q-4 0 -4 4zM260 209q-1 -4 -4 -4q4 -1 4 -5q0 4 4 5q-4 0 -4 4zM254 205q-4 0 -4 4q-1 -4 -4 -4q4 -1 4 -5q0 4 4 5zM280 219q-1 -4 -4 -4q3 -1 4 -4q0 3 4 4q-4 0 -4 4zM270 219
q-1 -4 -4 -4q4 -1 4 -5q0 4 4 5q-4 0 -4 4zM260 219q-1 -4 -4 -4q3 -1 4 -4q0 3 4 4q-4 0 -4 4zM280 229q-1 -4 -4 -4q4 -1 4 -5q0 4 4 5q-4 0 -4 4zM270 229q-1 -4 -4 -4q3 -1 4 -4q0 3 4 4q-4 0 -4 4zM290 239q-1 -4 -4 -4q3 -1 4 -4q0 3 4 4q-4 0 -4 4zM280 239
q-1 -4 -4 -4q4 -1 4 -5q0 4 4 5q-4 0 -4 4zM300 249q-1 -4 -4 -4q4 -1 4 -5q0 4 4 5q-4 0 -4 4zM290 249q-1 -4 -4 -4q4 -1 4 -5q0 4 4 5q-4 0 -4 4zM300 259q-1 -4 -4 -4q4 -1 4 -5q0 4 4 5q-4 0 -4 4zM300 269q-1 -4 -4 -4q3 -1 4 -4q0 3 4 4q-4 0 -4 4zM314 255
q-4 0 -4 4q-1 -4 -4 -4q4 -1 4 -5q0 4 4 5zM320 269q-1 -4 -4 -4q4 -1 4 -5q0 4 4 5q-4 0 -4 4zM314 265q-4 0 -4 4q-1 -4 -4 -4q4 -1 4 -5q0 4 4 5zM330 279q-1 -4 -4 -4q3 -1 4 -4q0 3 4 4q-4 0 -4 4zM320 279q-1 -4 -4 -4q3 -1 4 -4q0 3 4 4q-4 0 -4 4zM314 275
q-4 0 -4 4q-1 -4 -4 -4q3 -1 4 -4q0 3 4 4zM340 289q-1 -4 -4 -4q4 -1 4 -5q0 4 4 5q-4 0 -4 4zM330 289q-1 -4 -4 -4q4 -1 4 -5q0 4 4 5q-4 0 -4 4zM320 289q-1 -4 -4 -4q4 -1 4 -5q0 4 4 5q-4 0 -4 4zM350 299q-1 -4 -4 -4q4 -1 4 -5q0 4 4 5q-4 0 -4 4zM340 299
q-1 -4 -4 -4q3 -1 4 -4q0 3 4 4q-4 0 -4 4zM330 299q-1 -4 -4 -4q4 -1 4 -5q0 4 4 5q-4 0 -4 4zM360 309q-1 -4 -4 -4q4 -1 4 -5q0 4 4 5q-4 0 -4 4zM350 309q-1 -4 -4 -4q3 -1 4 -4q0 3 4 4q-4 0 -4 4zM340 309q-1 -4 -4 -4q4 -1 4 -5q0 4 4 5q-4 0 -4 4zM270 489
q-1 -4 -4 -4q3 -1 4 -4q0 3 4 4q-4 0 -4 4zM260 489q-1 -4 -4 -4q3 -1 4 -4q0 3 4 4q-4 0 -4 4zM270 499q-1 -4 -4 -4q4 -1 4 -5q0 4 4 5q-4 0 -4 4zM260 499q-1 -4 -4 -4q3 -1 4 -4q0 3 4 4q-4 0 -4 4zM280 509q-1 -4 -4 -4q3 -1 4 -4q0 3 4 4q-4 0 -4 4zM270 509
q-1 -4 -4 -4q4 -1 4 -5q0 4 4 5q-4 0 -4 4zM280 519q-1 -4 -4 -4q4 -1 4 -5q0 4 4 5q-4 0 -4 4zM270 519q-1 -4 -4 -4q4 -1 4 -5q0 4 4 5q-4 0 -4 4zM280 529q-1 -4 -4 -4q4 -1 4 -5q0 4 4 5q-4 0 -4 4zM280 539q-1 -4 -4 -4q4 -1 4 -5q0 4 4 5q-4 0 -4 4zM360 319
q-1 -4 -4 -4q4 -1 4 -5q0 4 4 5q-4 0 -4 4zM350 319q-1 -4 -4 -4q3 -1 4 -4q0 3 4 4q-4 0 -4 4zM360 329q-1 -4 -4 -4q4 -1 4 -5q0 4 4 5q-4 0 -4 4zM350 329q-1 -4 -4 -4q4 -1 4 -5q0 4 4 5q-4 0 -4 4zM360 339q-1 -4 -4 -4q3 -1 4 -4q0 3 4 4q-4 0 -4 4zM374 315
q-4 0 -4 4q-1 -4 -4 -4q3 -1 4 -4q0 3 4 4zM380 329q-1 -4 -4 -4q3 -1 4 -4q0 3 4 4q-4 0 -4 4zM374 325q-4 0 -4 4q-1 -4 -4 -4q4 -1 4 -5q0 4 4 5zM390 339q-1 -4 -4 -4q4 -1 4 -5q0 4 4 5q-4 0 -4 4zM380 339q-1 -4 -4 -4q4 -1 4 -5q0 4 4 5q-4 0 -4 4zM374 335
q-4 0 -4 4q-1 -4 -4 -4q3 -1 4 -4q0 3 4 4zM400 349q-1 -4 -4 -4q4 -1 4 -5q0 4 4 5q-4 0 -4 4zM390 349q-1 -4 -4 -4q3 -1 4 -4q0 3 4 4q-4 0 -4 4zM380 349q-1 -4 -4 -4q4 -1 4 -5q0 4 4 5q-4 0 -4 4zM374 345q-4 0 -4 4q-1 -4 -4 -4q4 -1 4 -5q0 4 4 5zM410 359
q-1 -4 -4 -4q4 -1 4 -5q0 4 4 5q-4 0 -4 4zM400 359q-1 -4 -4 -4q3 -1 4 -4q0 3 4 4q-4 0 -4 4zM390 359q-1 -4 -4 -4q3 -1 4 -4q0 3 4 4q-4 0 -4 4zM380 359q-1 -4 -4 -4q3 -1 4 -4q0 3 4 4q-4 0 -4 4zM300 549q-1 -4 -4 -4q3 -1 4 -4q0 3 4 4q-4 0 -4 4zM400 369
q-1 -4 -4 -4q4 -1 4 -5q0 4 4 5q-4 0 -4 4zM390 369q-1 -4 -4 -4q3 -1 4 -4q0 3 4 4q-4 0 -4 4zM420 379q-1 -4 -4 -4q3 -1 4 -4q0 3 4 4q-4 0 -4 4zM410 379q-1 -4 -4 -4q3 -1 4 -4q0 3 4 4q-4 0 -4 4zM400 379q-1 -4 -4 -4q4 -1 4 -5q0 4 4 5q-4 0 -4 4zM420 389
q-1 -4 -4 -4q4 -1 4 -5q0 4 4 5q-4 0 -4 4zM410 389q-1 -4 -4 -4q4 -1 4 -5q0 4 4 5q-4 0 -4 4zM400 389q-1 -4 -4 -4q3 -1 4 -4q0 3 4 4q-4 0 -4 4zM420 399q-1 -4 -4 -4q4 -1 4 -5q0 4 4 5q-4 0 -4 4zM410 399q-1 -4 -4 -4q4 -1 4 -5q0 4 4 5q-4 0 -4 4zM420 409
q-1 -4 -4 -4q4 -1 4 -5q0 4 4 5q-4 0 -4 4zM434 385q-4 0 -4 4q-1 -4 -4 -4q4 -1 4 -5q0 4 4 5zM440 399q-1 -4 -4 -4q4 -1 4 -5q0 4 4 5q-4 0 -4 4zM434 395q-4 0 -4 4q-1 -4 -4 -4q3 -1 4 -4q0 3 4 4zM450 409q-1 -4 -4 -4q4 -1 4 -5q0 4 4 5q-4 0 -4 4zM440 409
q-1 -4 -4 -4q3 -1 4 -4q0 3 4 4q-4 0 -4 4zM434 405q-4 0 -4 4q-1 -4 -4 -4q4 -1 4 -5q0 4 4 5zM460 419q-1 -4 -4 -4q4 -1 4 -5q0 4 4 5q-4 0 -4 4zM450 419q-1 -4 -4 -4q3 -1 4 -4q0 3 4 4q-4 0 -4 4zM440 419q-1 -4 -4 -4q4 -1 4 -5q0 4 4 5q-4 0 -4 4zM434 415
q-4 0 -4 4q-1 -4 -4 -4q3 -1 4 -4q0 3 4 4zM470 429q-1 -4 -4 -4q3 -1 4 -4q0 3 4 4q-4 0 -4 4zM460 429q-1 -4 -4 -4q4 -1 4 -5q0 4 4 5q-4 0 -4 4zM450 429q-1 -4 -4 -4q3 -1 4 -4q0 3 4 4q-4 0 -4 4zM440 429q-1 -4 -4 -4q3 -1 4 -4q0 3 4 4q-4 0 -4 4zM480 439
q-1 -4 -4 -4q3 -1 4 -4q0 3 4 4q-4 0 -4 4zM470 439q-1 -4 -4 -4q3 -1 4 -4q0 3 4 4q-4 0 -4 4zM460 439q-1 -4 -4 -4q4 -1 4 -5q0 4 4 5q-4 0 -4 4zM450 439q-1 -4 -4 -4q3 -1 4 -4q0 3 4 4q-4 0 -4 4zM470 449q-1 -4 -4 -4q3 -1 4 -4q0 3 4 4q-4 0 -4 4zM460 449
q-1 -4 -4 -4q3 -1 4 -4q0 3 4 4q-4 0 -4 4zM470 459q-1 -4 -4 -4q4 -1 4 -5q0 4 4 5q-4 0 -4 4zM460 459q-1 -4 -4 -4q4 -1 4 -5q0 4 4 5q-4 0 -4 4zM340 629q-1 -4 -4 -4q3 -1 4 -4q0 3 4 4q-4 0 -4 4zM294 525q-4 0 -4 4q-1 -4 -4 -4q4 -1 4 -5q0 4 4 5zM294 535
q-4 0 -4 4q-1 -4 -4 -4q4 -1 4 -5q0 4 4 5zM330 629q-1 -4 -4 -4q3 -1 4 -4q0 3 4 4q-4 0 -4 4zM294 545q-4 0 -4 4q-1 -4 -4 -4q4 -1 4 -5q0 4 4 5zM300 559q-1 -4 -4 -4q3 -1 4 -4q0 3 4 4q-4 0 -4 4zM294 555q-4 0 -4 4q-1 -4 -4 -4q4 -1 4 -5q0 4 4 5zM310 569
q-1 -4 -4 -4q4 -1 4 -5q0 4 4 5q-4 0 -4 4zM300 569q-1 -4 -4 -4q4 -1 4 -5q0 4 4 5q-4 0 -4 4zM310 579q-1 -4 -4 -4q4 -1 4 -5q0 4 4 5q-4 0 -4 4zM300 579q-1 -4 -4 -4q3 -1 4 -4q0 3 4 4q-4 0 -4 4zM320 589q-1 -4 -4 -4q4 -1 4 -5q0 4 4 5q-4 0 -4 4zM310 589
q-1 -4 -4 -4q4 -1 4 -5q0 4 4 5q-4 0 -4 4zM330 599q-1 -4 -4 -4q3 -1 4 -4q0 3 4 4q-4 0 -4 4zM320 599q-1 -4 -4 -4q4 -1 4 -5q0 4 4 5q-4 0 -4 4zM310 599q-1 -4 -4 -4q4 -1 4 -5q0 4 4 5q-4 0 -4 4zM330 609q-1 -4 -4 -4q3 -1 4 -4q0 3 4 4q-4 0 -4 4zM320 609
q-1 -4 -4 -4q4 -1 4 -5q0 4 4 5q-4 0 -4 4zM340 619q-1 -4 -4 -4q4 -1 4 -5q0 4 4 5q-4 0 -4 4zM330 619q-1 -4 -4 -4q4 -1 4 -5q0 4 4 5q-4 0 -4 4zM354 665q-4 0 -4 4q-1 -4 -4 -4q4 -1 4 -5q0 4 4 5zM360 689q-1 -4 -4 -4q4 -1 4 -5q0 4 4 5q-4 0 -4 4zM340 639
q-1 -4 -4 -4q3 -1 4 -4q0 3 4 4q-4 0 -4 4zM340 649q-1 -4 -4 -4q4 -1 4 -5q0 4 4 5q-4 0 -4 4zM354 635q-4 0 -4 4q-1 -4 -4 -4q3 -1 4 -4q0 3 4 4zM354 645q-4 0 -4 4q-1 -4 -4 -4q4 -1 4 -5q0 4 4 5zM360 659q-1 -4 -4 -4q3 -1 4 -4q0 3 4 4q-4 0 -4 4zM354 655
q-4 0 -4 4q-1 -4 -4 -4q4 -1 4 -5q0 4 4 5zM370 669q-1 -4 -4 -4q3 -1 4 -4q0 3 4 4q-4 0 -4 4zM360 669q-1 -4 -4 -4q4 -1 4 -5q0 4 4 5q-4 0 -4 4zM80 9q-1 -4 -4 -4q4 -1 4 -5q0 4 4 5q-4 0 -4 4zM370 679q-1 -4 -4 -4q4 -1 4 -5q0 4 4 5q-4 0 -4 4zM360 679q-1 -4 -4 -4
q4 -1 4 -5q0 4 4 5q-4 0 -4 4zM380 689q-1 -4 -4 -4q4 -1 4 -5q0 4 4 5q-4 0 -4 4zM370 689q-1 -4 -4 -4q3 -1 4 -4q0 3 4 4q-4 0 -4 4zM94 15q-4 0 -4 4q-1 -4 -4 -4q4 -1 4 -5q0 4 4 5zM370 699q-1 -4 -4 -4q4 -1 4 -5q0 4 4 5q-4 0 -4 4zM100 29q-1 -4 -4 -4q4 -1 4 -5
q0 4 4 5q-4 0 -4 4z" />
    <glyph glyph-name="_526" 
d="M0 582q-35 0 -61 25.5t-26 61.5t26 61.5t61 25.5q37 0 62.5 -25.5t25.5 -61.5t-25.5 -61.5t-62.5 -25.5z" />
    <glyph glyph-name="_531" 
d="M0 -75q-32 0 -54 22t-22 53q0 32 22 54t54 22q31 0 53 -22t22 -54q0 -31 -22 -53t-53 -22z" />
    <glyph glyph-name="_532" 
d="M0 -219q-32 0 -54 22t-22 53q0 32 22 54t54 22q31 0 53 -22t22 -54q0 -31 -22 -53t-53 -22z" />
    <glyph glyph-name="_534" 
d="M-72 -306l42 94q-45 21 -45 69q0 31 21.5 53t53.5 22q31 0 53 -22t22 -53q0 -27 -15 -48l-72 -115h-60z" />
    <glyph glyph-name="_538" 
d="M-79 549l21 161h137l-65 -161h-93z" />
    <glyph glyph-name="_539" 
d="M0 577q-31 0 -53 22t-22 53q0 26 15 48l72 115h60l-42 -94q45 -21 45 -69q0 -31 -21.5 -53t-53.5 -22z" />
    <glyph glyph-name="_540" 
d="M-95 577q-32 0 -54 22t-22 53q0 32 22 54t54 22q31 0 53 -22t22 -54q0 -31 -22 -53t-53 -22zM94 577q-31 0 -53 22t-22 53q0 32 22 54t53 22q32 0 54 -22t22 -54q0 -31 -22 -53t-54 -22z" />
    <glyph glyph-name="_541" 
d="M260 464l-474 -475l-46 47l474 475z" />
    <glyph glyph-name="_542" 
d="M170 567h-339v90h339v-90z" />
    <glyph glyph-name="_543" 
d="M170 567h-339v90h339v-90z" />
    <glyph glyph-name="_544" 
d="M143 403l-285 -167v107l285 168v-108z" />
    <glyph glyph-name="_545" 
d="M-189 220v90h379v-90h-379z" />
    <glyph glyph-name="zero.zero" horiz-adv-x="631" 
d="M316 -11q-117 0 -191 79t-74 202v172q0 122 74 201t191 79q116 0 190 -79t74 -201v-172q0 -123 -74 -202t-190 -79zM316 124q58 0 92.5 39t34.5 107v102l-251 -146q11 -49 43.5 -75.5t80.5 -26.5zM188 442v-103l250 147q-11 48 -43 74.5t-79 26.5q-58 0 -93 -38.5
t-35 -106.5z" />
    <glyph glyph-name="one.onum" horiz-adv-x="342" 
d="M135 0v440h-130l97 120h170v-560h-137z" />
    <glyph glyph-name="two.onum" horiz-adv-x="501" 
d="M453 120v-120h-411v41q0 23 5 44.5t11 37.5t20.5 34.5t23 28t30 26.5t29.5 23t34 23.5t32 21.5q41 28 63 53.5t22 57.5q0 24 -16.5 41.5t-44.5 17.5q-33 0 -52 -20.5t-17 -48.5h-137q0 83 60 136t152 53q80 0 136 -46.5t56 -129.5q0 -69 -30.5 -113.5t-86.5 -84.5
q-4 -3 -28 -19t-42 -30.5t-25 -26.5h216z" />
    <glyph glyph-name="three.onum" horiz-adv-x="530" 
d="M269 -78q-94 0 -163 57.5t-73 156.5h135q5 -45 31 -69t68 -24q36 0 59 21t23 56q1 38 -23.5 61t-64.5 23h-54v100h46q34 0 56 20.5t23 52.5q1 33 -19 53t-51 20q-36 0 -58 -24.5t-23 -63.5h-137q0 94 67 151t158 57q92 0 146.5 -52.5t54.5 -130.5q0 -42 -19 -78t-46 -57
q34 -17 58 -54.5t24 -87.5q0 -82 -62 -135t-156 -53z" />
    <glyph glyph-name="four.onum" horiz-adv-x="559" 
d="M312 -68v143h-296v99l309 386h124v-373h77v-112h-77v-143h-137zM180 187h132v175z" />
    <glyph glyph-name="five.onum" horiz-adv-x="510" 
d="M257 -78q-91 0 -158 55t-71 138h142q6 -33 29 -52.5t58 -19.5q40 0 61 26t21 70t-23 70t-59 26q-63 0 -92 -65l-118 33l71 357h310v-119h-205l-24 -117q36 22 87 22q82 0 136 -58t54 -149q0 -101 -58 -159t-161 -58z" />
    <glyph glyph-name="six.onum" horiz-adv-x="527" 
d="M262 -11q-98 0 -162 60.5t-64 144.5q0 51 16 86t57 93l179 254h166l-153 -217q74 -6 131 -62t57 -142q0 -94 -63 -155.5t-164 -61.5zM174 204q0 -42 24.5 -69.5t63.5 -27.5q41 0 65 27t24 70t-24 70t-65 27q-40 0 -64 -27t-24 -70z" />
    <glyph glyph-name="seven.onum" horiz-adv-x="484" 
d="M183 -68h-155l277 509h-275v119h436v-106z" />
    <glyph glyph-name="eight.onum" horiz-adv-x="549" 
d="M275 -11q-96 0 -165.5 58t-69.5 145q0 98 85 148q-59 48 -59 127q0 74 58.5 122t150.5 48q90 0 148.5 -48t58.5 -122q0 -78 -60 -126q87 -51 87 -149q0 -87 -69.5 -145t-164.5 -58zM275 102q41 0 66.5 26.5t25.5 65.5q0 40 -25.5 66.5t-66.5 26.5q-42 0 -68 -26.5
t-26 -66.5q0 -39 26 -65.5t68 -26.5zM275 384q33 0 53.5 21t20.5 51q0 31 -21 52t-53 21q-35 0 -55.5 -20.5t-20.5 -52.5q0 -31 21 -51.5t55 -20.5z" />
    <glyph glyph-name="nine.onum" horiz-adv-x="526" 
d="M264 570q99 0 163 -60t64 -145q0 -51 -16 -86t-57 -93l-180 -254h-165l152 216q-74 6 -130.5 62.5t-56.5 142.5q0 93 63 155t163 62zM353 355q0 43 -24 70t-65 27q-39 0 -63.5 -27.5t-24.5 -69.5q0 -43 24 -70t64 -27q41 0 65 27t24 70z" />
    <glyph glyph-name="zero.onum" horiz-adv-x="547" 
d="M273 -9q-99 0 -161.5 63.5t-62.5 161.5v129q0 98 62.5 161.5t161.5 63.5t162 -63.5t63 -161.5v-129q0 -98 -63 -161.5t-162 -63.5zM273 111q40 0 64 27.5t24 77.5v129q0 48 -24 76t-64 28q-39 0 -63 -28t-24 -76v-129q0 -49 23.5 -77t63.5 -28z" />
    <glyph glyph-name="zero.onum_zero" horiz-adv-x="547" 
d="M273 -9q-99 0 -161.5 63.5t-62.5 161.5v129q0 98 62.5 161.5t161.5 63.5t162 -63.5t63 -161.5v-129q0 -98 -63 -161.5t-162 -63.5zM273 111q40 0 64 27.5t24 77.5v58l-170 -99q8 -30 30 -47t52 -17zM186 345v-59l169 100q-19 63 -82 63q-39 0 -63 -28t-24 -76z" />
    <glyph glyph-name="one.tnum" horiz-adv-x="590" 
d="M60 0v128h174v447h-147l100 135h184v-582h174v-128h-485z" />
    <glyph glyph-name="two.tnum" horiz-adv-x="590" 
d="M533 135v-135h-484v47q0 29 6 56t14.5 47.5t25.5 42.5t29 36t36.5 34t37.5 29.5t41 29t39 27.5q112 78 112 146q0 40 -25 66t-69 26q-47 0 -77.5 -28.5t-29.5 -71.5h-138q0 104 70.5 169.5t177.5 65.5q95 0 161.5 -58t66.5 -161q0 -85 -36.5 -139.5t-113.5 -110.5
q-7 -5 -36 -24.5t-44 -30.5t-33.5 -29t-24.5 -34h294z" />
    <glyph glyph-name="three.tnum" horiz-adv-x="590" 
d="M300 -11q-107 0 -183.5 64.5t-80.5 176.5h136q5 -51 39.5 -78.5t88.5 -27.5q48 0 77.5 24t30.5 65q0 45 -31 70t-85 25h-60v112h54q49 0 75 23t27 62q1 36 -25.5 59t-66.5 23q-48 0 -79 -28t-30 -72h-138q0 106 74 170.5t173 64.5q106 0 168 -59.5t62 -146.5
q0 -49 -23 -89.5t-56 -63.5q43 -20 71 -62t28 -99q0 -94 -68 -153.5t-178 -59.5z" />
    <glyph glyph-name="four.tnum" horiz-adv-x="590" 
d="M357 0v162h-353v111l368 437h122v-422h93v-126h-93v-162h-137zM172 288h185v219z" />
    <glyph glyph-name="five.tnum" horiz-adv-x="590" 
d="M293 -11q-100 0 -174.5 62t-78.5 155h142q9 -36 39.5 -59t71.5 -23q52 0 81.5 31.5t29.5 78.5q0 48 -30.5 79t-78.5 31q-41 0 -70 -20t-41 -54l-121 37l80 403h346v-133h-240l-27 -133q38 24 98 24q100 0 160.5 -68t60.5 -177q0 -106 -68.5 -170t-179.5 -64z" />
    <glyph glyph-name="six.tnum" horiz-adv-x="590" 
d="M292 -11q-111 0 -179 69.5t-68 175.5q0 50 18 87.5t64 101.5l212 287h169l-183 -249q84 -4 149.5 -66t65.5 -161q0 -106 -68 -175.5t-180 -69.5zM292 121q48 0 79 32t31 79q0 46 -31.5 79t-78.5 33t-78 -32.5t-31 -79.5t31 -79t78 -32z" />
    <glyph glyph-name="seven.tnum" horiz-adv-x="590" 
d="M220 0h-155l321 577h-332v133h495v-118z" />
    <glyph glyph-name="eight.tnum" horiz-adv-x="590" 
d="M295 -11q-108 0 -180 65t-72 164q0 116 91 170q-61 55 -61 142q0 83 61.5 137.5t160.5 54.5t160.5 -54.5t61.5 -137.5q0 -86 -61 -141q91 -56 91 -171q0 -99 -72 -164t-180 -65zM295 116q50 0 80.5 30.5t30.5 74.5t-30.5 74.5t-80.5 30.5q-51 0 -81 -30.5t-30 -74.5
t30 -74.5t81 -30.5zM295 436q38 0 63.5 23.5t25.5 58.5t-25.5 58.5t-63.5 23.5t-63.5 -23.5t-25.5 -58.5t25.5 -58.5t63.5 -23.5z" />
    <glyph glyph-name="nine.tnum" horiz-adv-x="590" 
d="M80 0l183 250q-83 2 -148.5 65t-65.5 162q0 106 68.5 175.5t179.5 69.5t179.5 -69.5t68.5 -175.5q0 -49 -18 -86.5t-65 -102.5l-212 -288h-170zM297 367q47 0 78.5 33t31.5 79q0 47 -31 79t-79 32t-79 -31.5t-31 -79.5q0 -46 31.5 -79t78.5 -33z" />
    <glyph glyph-name="zero.tnum" horiz-adv-x="590" 
d="M296 -11q-117 0 -191 79t-74 202v172q0 122 74 201t191 79q116 0 190 -79t74 -201v-172q0 -123 -74 -202t-190 -79zM296 124q58 0 92.5 39t34.5 107v172q0 68 -34.5 106.5t-92.5 38.5t-93 -38.5t-35 -106.5v-172q0 -68 35 -107t93 -39z" />
    <glyph glyph-name="zero.tnum_zero" horiz-adv-x="590" 
d="M295 -11q-117 0 -191 79t-74 202v172q0 122 74 201t191 79q116 0 190 -79t74 -201v-172q0 -123 -74 -202t-190 -79zM295 124q58 0 92.5 39t34.5 107v102l-251 -146q11 -49 43.5 -75.5t80.5 -26.5zM167 442v-103l250 147q-11 48 -43 74.5t-79 26.5q-58 0 -93 -38.5
t-35 -106.5z" />
    <glyph glyph-name="uni2070.zero" horiz-adv-x="389" 
d="M195 403q-74 0 -119.5 49t-45.5 125v98q0 76 45.5 125t119.5 49q72 0 118 -49t46 -125v-98q0 -76 -46 -125t-118 -49zM195 499q30 0 48.5 21t18.5 57v48l-132 -74q13 -52 65 -52zM127 675v-47l132 74q-14 51 -64 51q-30 0 -49 -21t-19 -57z" />
    <glyph glyph-name="uni2080.zero" horiz-adv-x="389" 
d="M195 -122q-74 0 -119.5 49t-45.5 125v98q0 76 45.5 125t119.5 49q72 0 118 -49t46 -125v-98q0 -76 -46 -125t-118 -49zM195 -26q30 0 48.5 21t18.5 57v48l-132 -74q13 -52 65 -52zM127 150v-47l132 74q-14 51 -64 51q-30 0 -49 -21t-19 -57z" />
    <glyph glyph-name="one.numr" horiz-adv-x="243" 
d="M100 278v336h-95l68 96h124v-432h-97z" />
    <glyph glyph-name="two.numr" horiz-adv-x="355" 
d="M325 374v-96h-300v32q0 18 4 35t8 29.5t15 26.5t17 21.5t22.5 21t21.5 17.5t25 17.5t24 16.5q63 41 63 82q0 19 -12 31.5t-34 12.5q-25 0 -40 -15t-14 -35h-98q0 63 44.5 104.5t110.5 41.5q58 0 99.5 -35.5t41.5 -100.5q0 -55 -23 -90t-64 -63q-2 -1 -21.5 -13t-32.5 -22
t-18 -19h161z" />
    <glyph glyph-name="three.numr" horiz-adv-x="364" 
d="M185 271q-65 0 -113.5 39.5t-50.5 111.5h97q6 -55 67 -55q26 0 41 12.5t15 32.5q0 21 -16.5 34t-43.5 13h-39v77h33q53 0 53 44q0 18 -13 29.5t-33 11.5q-24 0 -39.5 -14.5t-15.5 -35.5h-97q0 66 46.5 106t106.5 40q68 0 105.5 -37t37.5 -91q0 -58 -43 -93
q23 -11 39 -35.5t16 -58.5q0 -57 -42.5 -94t-110.5 -37z" />
    <glyph glyph-name="four.numr" horiz-adv-x="395" 
d="M223 278v90h-208v79l218 263h88v-253h55v-89h-55v-90h-98zM133 457h90v108z" />
    <glyph glyph-name="five.numr" horiz-adv-x="350" 
d="M181 271q-65 0 -112.5 38t-49.5 98h100q12 -40 59 -40q23 0 38.5 16t15.5 40q0 23 -16 38.5t-39 15.5q-46 0 -58 -45l-87 26l47 252h217v-95h-141l-12 -61q24 11 53 11q61 0 97 -41t36 -107q0 -64 -41 -105t-107 -41z" />
    <glyph glyph-name="six.numr" horiz-adv-x="339" 
d="M168 271q-69 0 -111 42t-42 102q0 35 10.5 58t40.5 67l115 170h119l-102 -151q47 -4 84.5 -40.5t37.5 -96.5q0 -65 -41 -108t-111 -43zM168 365q23 0 38.5 16.5t15.5 39.5t-15.5 39.5t-38.5 16.5q-26 0 -41 -16t-15 -40t15 -40t41 -16z" />
    <glyph glyph-name="seven.numr" horiz-adv-x="346" 
d="M138 278h-111l192 337h-193v95h309v-85z" />
    <glyph glyph-name="eight.numr" horiz-adv-x="363" 
d="M182 271q-67 0 -112 39.5t-45 99.5q0 64 52 100q-34 34 -34 89q0 48 38.5 83t100.5 35t99.5 -34.5t37.5 -83.5q0 -54 -35 -88q55 -36 55 -101q0 -59 -45.5 -99t-111.5 -40zM182 360q25 0 40.5 16.5t15.5 38.5q0 21 -15.5 37t-40.5 16q-26 0 -41.5 -15.5t-15.5 -37.5
t15.5 -38.5t41.5 -16.5zM182 544q19 0 33 12t14 32q0 18 -14 31t-33 13q-20 0 -33.5 -12.5t-13.5 -31.5q0 -20 13 -32t34 -12z" />
    <glyph glyph-name="nine.numr" horiz-adv-x="339" 
d="M39 278l102 151q-48 4 -85 40.5t-37 96.5q0 66 41.5 108.5t111.5 42.5q69 0 110.5 -42t41.5 -102q0 -35 -10.5 -58t-40.5 -67l-115 -170h-119zM172 511q24 0 39.5 16t15.5 40t-15.5 40t-39.5 16t-39.5 -16t-15.5 -40t15.5 -40t39.5 -16z" />
    <glyph glyph-name="zero.numr" horiz-adv-x="389" 
d="M195 271q-74 0 -119.5 49t-45.5 125v98q0 76 45.5 125t119.5 49q72 0 118 -49t46 -125v-98q0 -76 -46 -125t-118 -49zM195 367q30 0 48.5 21t18.5 57v98q0 36 -18.5 57t-48.5 21t-49 -21t-19 -57v-98q0 -36 19 -57t49 -21z" />
    <glyph glyph-name="zero.numr_zero" horiz-adv-x="389" 
d="M195 271q-74 0 -119.5 49t-45.5 125v98q0 76 45.5 125t119.5 49q72 0 118 -49t46 -125v-98q0 -76 -46 -125t-118 -49zM195 367q30 0 48.5 21t18.5 57v48l-132 -74q13 -52 65 -52zM127 543v-47l132 74q-14 51 -64 51q-30 0 -49 -21t-19 -57z" />
    <glyph glyph-name="one.dnom" horiz-adv-x="243" 
d="M100 1v336h-95l68 96h124v-432h-97z" />
    <glyph glyph-name="two.dnom" horiz-adv-x="355" 
d="M325 97v-96h-300v32q0 18 4 35t8 29.5t15 26.5t17 21.5t22.5 21t21.5 17.5t25 17.5t24 16.5q63 41 63 82q0 19 -12 31.5t-34 12.5q-25 0 -40 -15t-14 -35h-98q0 63 44.5 104.5t110.5 41.5q58 0 99.5 -35.5t41.5 -100.5q0 -55 -23 -90t-64 -63q-2 -1 -21.5 -13t-32.5 -22
t-18 -19h161z" />
    <glyph glyph-name="three.dnom" horiz-adv-x="364" 
d="M185 -6q-65 0 -113.5 39.5t-50.5 111.5h97q6 -55 67 -55q26 0 41 12.5t15 32.5q0 21 -16.5 34t-43.5 13h-39v77h33q53 0 53 44q0 18 -13 29.5t-33 11.5q-24 0 -39.5 -14.5t-15.5 -35.5h-97q0 66 46.5 106t106.5 40q68 0 105.5 -37t37.5 -91q0 -58 -43 -93
q23 -11 39 -35.5t16 -58.5q0 -57 -42.5 -94t-110.5 -37z" />
    <glyph glyph-name="four.dnom" horiz-adv-x="395" 
d="M223 1v90h-208v79l218 263h88v-253h55v-89h-55v-90h-98zM133 180h90v108z" />
    <glyph glyph-name="five.dnom" horiz-adv-x="350" 
d="M181 -6q-65 0 -112.5 38t-49.5 98h100q12 -40 59 -40q23 0 38.5 16t15.5 40q0 23 -16 38.5t-39 15.5q-46 0 -58 -45l-87 26l47 252h217v-95h-141l-12 -61q24 11 53 11q61 0 97 -41t36 -107q0 -64 -41 -105t-107 -41z" />
    <glyph glyph-name="six.dnom" horiz-adv-x="339" 
d="M168 -6q-69 0 -111 42t-42 102q0 35 10.5 58t40.5 67l115 170h119l-102 -151q47 -4 84.5 -40.5t37.5 -96.5q0 -65 -41 -108t-111 -43zM168 88q23 0 38.5 16.5t15.5 39.5t-15.5 39.5t-38.5 16.5q-26 0 -41 -16t-15 -40t15 -40t41 -16z" />
    <glyph glyph-name="seven.dnom" horiz-adv-x="346" 
d="M138 1h-111l192 337h-193v95h309v-85z" />
    <glyph glyph-name="eight.dnom" horiz-adv-x="363" 
d="M182 -6q-67 0 -112 39.5t-45 99.5q0 64 52 100q-34 34 -34 89q0 48 38.5 83t100.5 35t99.5 -34.5t37.5 -83.5q0 -54 -35 -88q55 -36 55 -101q0 -59 -45.5 -99t-111.5 -40zM182 83q25 0 40.5 16.5t15.5 38.5q0 21 -15.5 37t-40.5 16q-26 0 -41.5 -15.5t-15.5 -37.5
t15.5 -38.5t41.5 -16.5zM182 267q19 0 33 12t14 32q0 18 -14 31t-33 13q-20 0 -33.5 -12.5t-13.5 -31.5q0 -20 13 -32t34 -12z" />
    <glyph glyph-name="nine.dnom" horiz-adv-x="339" 
d="M39 1l102 151q-48 4 -85 40.5t-37 96.5q0 66 41.5 108.5t111.5 42.5q69 0 110.5 -42t41.5 -102q0 -35 -10.5 -58t-40.5 -67l-115 -170h-119zM172 234q24 0 39.5 16t15.5 40t-15.5 40t-39.5 16t-39.5 -16t-15.5 -40t15.5 -40t39.5 -16z" />
    <glyph glyph-name="zero.dnom" horiz-adv-x="389" 
d="M195 -6q-74 0 -119.5 49t-45.5 125v98q0 76 45.5 125t119.5 49q72 0 118 -49t46 -125v-98q0 -76 -46 -125t-118 -49zM195 90q30 0 48.5 21t18.5 57v98q0 36 -18.5 57t-48.5 21t-49 -21t-19 -57v-98q0 -36 19 -57t49 -21z" />
    <glyph glyph-name="zero.dnom_zero" horiz-adv-x="389" 
d="M195 -7q-74 0 -119.5 49t-45.5 125v98q0 76 45.5 125t119.5 49q72 0 118 -49t46 -125v-98q0 -76 -46 -125t-118 -49zM195 89q30 0 48.5 21t18.5 57v48l-132 -74q13 -52 65 -52zM127 265v-47l132 74q-14 51 -64 51q-30 0 -49 -21t-19 -57z" />
    <glyph glyph-name="hyphen.case" horiz-adv-x="406" 
d="M60 289v132h286v-132h-286z" />
    <glyph glyph-name="uni00AD.case" horiz-adv-x="406" 
d="M60 289v132h286v-132h-286z" />
    <glyph glyph-name="endash.case" horiz-adv-x="593" 
d="M60 289v132h473v-132h-473z" />
    <glyph glyph-name="emdash.case" horiz-adv-x="887" 
d="M60 289v132h767v-132h-767z" />
    <glyph glyph-name="questiondown.case" horiz-adv-x="519" 
d="M353 453v-19q0 -42 -22 -73t-64 -61q-5 -4 -22 -15t-22.5 -15t-17 -14t-15.5 -17t-8 -17.5t-4 -22.5q0 -35 23.5 -55.5t59.5 -20.5q39 0 66 24t27 66h137q0 -93 -67 -159t-163 -66t-158 60.5t-62 142.5q0 57 20.5 98t69.5 77q9 7 27 20t25 18.5t16.5 14.5t13 16t3.5 15v3
h137zM285 522q-42 0 -71 29t-29 71t29 71t71 29q41 0 70.5 -29.5t29.5 -70.5t-29.5 -70.5t-70.5 -29.5z" />
    <glyph glyph-name="exclamdown.case" horiz-adv-x="297" 
d="M190 453l27 -185v-268h-138v268l27 185h84zM148 522q-42 0 -71 29t-29 71t29 71t71 29q41 0 70.5 -29.5t29.5 -70.5t-29.5 -70.5t-70.5 -29.5z" />
    <glyph glyph-name="guilsinglleft.case" horiz-adv-x="348" 
d="M36 355l141 217h118l-116 -217l116 -217h-118z" />
    <glyph glyph-name="guilsinglright.case" horiz-adv-x="348" 
d="M171 572l141 -217l-141 -217h-118l116 217l-116 217h118z" />
    <glyph glyph-name="guillemotleft.case" horiz-adv-x="551" 
d="M239 355l141 217h118l-116 -217l116 -217h-118zM36 355l141 217h118l-116 -217l116 -217h-118z" />
    <glyph glyph-name="guillemotright.case" horiz-adv-x="551" 
d="M-32 572l141 -217l-141 -217h-118l116 217l-116 217h118zM171 572l141 -217l-141 -217h-118l116 217l-116 217h118z" />
    <glyph glyph-name="parenleft.case" horiz-adv-x="301" 
d="M279 -125h-109q-128 233 -128 480t128 480h109q-121 -235 -121 -480t121 -480z" />
    <glyph glyph-name="parenright.case" horiz-adv-x="301" 
d="M131 -125h-109q121 235 121 480t-121 480h109q128 -233 128 -480t-128 -480z" />
    <glyph glyph-name="bracketleft.case" horiz-adv-x="334" 
d="M79 -125v960h221v-100h-105v-760h105v-100h-221z" />
    <glyph glyph-name="bracketright.case" horiz-adv-x="334" 
d="M255 835v-960h-221v100h105v760h-105v100h221z" />
    <glyph glyph-name="braceleft.case" horiz-adv-x="348" 
d="M315 -125h-82q-66 0 -103 38t-37 104v229q0 59 -54 59h-9v100h9q54 0 54 57v231q0 66 37 104t103 38h82v-100h-48q-32 0 -44.5 -14t-12.5 -47v-218q0 -83 -61 -101q61 -18 61 -103v-216q0 -33 12.5 -47t44.5 -14h48v-100z" />
    <glyph glyph-name="braceright.case" horiz-adv-x="348" 
d="M115 -125h-82v100h48q32 0 44.5 14t12.5 47v216q0 85 61 103q-61 18 -61 101v218q0 33 -12.5 47t-44.5 14h-48v100h82q66 0 103 -38t37 -104v-231q0 -57 54 -57h9v-100h-9q-54 0 -54 -59v-229q0 -66 -37 -104t-103 -38z" />
    <glyph glyph-name="bar.case" horiz-adv-x="274" 
d="M79 -55v820h116v-820h-116z" />
    <glyph glyph-name="brokenbar.case" horiz-adv-x="274" 
d="M79 -55v347h116v-347h-116zM79 418v347h116v-347h-116z" />
    <glyph glyph-name="periodcentered.case" horiz-adv-x="296" 
d="M147 255q-42 0 -71 29t-29 71t29 71t71 29q41 0 70.5 -29.5t29.5 -70.5t-29.5 -70.5t-70.5 -29.5z" />
    <glyph glyph-name="plus.case" horiz-adv-x="498" 
d="M39 295v119h151v151h119v-151h150v-119h-150v-151h-119v151h-151z" />
    <glyph glyph-name="minus.case" horiz-adv-x="543" 
d="M61 295v119h421v-119h-421z" />
    <glyph glyph-name="multiply.case" horiz-adv-x="517" 
d="M131 144l-84 84l127 127l-127 127l84 84l127 -126l128 126l83 -84l-126 -127l126 -127l-83 -84l-128 126z" />
    <glyph glyph-name="equal.case" horiz-adv-x="541" 
d="M60 190v118h421v-118h-421zM60 400v119h421v-119h-421z" />
    <glyph glyph-name="less.case" horiz-adv-x="496" 
d="M457 608l-254 -253l254 -253h-171l-253 253l253 253h171z" />
    <glyph glyph-name="greater.case" horiz-adv-x="496" 
d="M293 355l-254 253h171l253 -253l-253 -253h-171z" />
    <glyph glyph-name="acute.case" 
d="M-113 770l72 157h154l-123 -157h-103z" />
    <glyph glyph-name="breve.case" 
d="M0 750q-74 0 -124 48.5t-50 126.5h80q0 -46 26.5 -70.5t67.5 -24.5t67.5 24.5t26.5 70.5h80q0 -78 -50 -126.5t-124 -48.5z" />
    <glyph glyph-name="caron.case" 
d="M0 763l-174 72v110l174 -73l174 73v-110z" />
    <glyph glyph-name="cedilla.case" 
d="M-118 -204v63q30 -17 76 -17q62 0 62 33q0 28 -44 28q-22 0 -41 -10l-35 19l55 91h62l-31 -51q28 7 47 7q37 0 61 -21t24 -58q0 -43 -41 -71t-95 -28q-62 0 -100 15z" />
    <glyph glyph-name="circumflex.case" 
d="M-174 763v109l174 73l174 -73v-109l-174 72z" />
    <glyph glyph-name="dieresis.case" 
d="M-117 772q-32 0 -54 22t-22 53q0 32 22 54t54 22q31 0 53 -22t22 -54q0 -31 -22 -53t-53 -22zM118 772q-32 0 -54 22t-22 53q0 32 22 54t54 22q31 0 53 -22t22 -54q0 -31 -22 -53t-53 -22z" />
    <glyph glyph-name="dotaccent.case" 
d="M0 772q-32 0 -54 22t-22 53q0 32 22 54t54 22q31 0 53 -22t22 -54q0 -31 -22 -53t-53 -22z" />
    <glyph glyph-name="_671" 
d="M0 -75q-32 0 -54 22t-22 53q0 32 22 54t54 22q31 0 53 -22t22 -54q0 -31 -22 -53t-53 -22z" />
    <glyph glyph-name="_672" 
d="M0 -219q-32 0 -54 22t-22 53q0 32 22 54t54 22q31 0 53 -22t22 -54q0 -31 -22 -53t-53 -22z" />
    <glyph glyph-name="_673" 
d="M-72 -306l42 94q-45 21 -45 69q0 31 21.5 53t53.5 22q31 0 53 -22t22 -53q0 -27 -15 -48l-72 -115h-60z" />
    <glyph glyph-name="grave.case" 
d="M113 770h-103l-123 157h154z" />
    <glyph glyph-name="hungarumlaut.case" 
d="M-14 770l66 157h144l-123 -157h-87zM-196 770l66 157h144l-123 -157h-87z" />
    <glyph glyph-name="macron.case" 
d="M-171 791v96h342v-96h-342z" />
    <glyph glyph-name="ogonek.case" 
d="M4 -219q-51 0 -81 27.5t-30 72.5q0 68 68 119h145q-40 -18 -63 -41.5t-23 -46.5q0 -26 36 -26q28 0 50 16v-93q-37 -28 -102 -28z" />
    <glyph glyph-name="ring.case" 
d="M1 753q-50 0 -86 35.5t-36 84.5t36 84.5t86 35.5t86 -35.5t36 -84.5t-36 -84.5t-86 -35.5zM1 815q25 0 42 17t17 41t-17 41t-42 17t-42 -17t-17 -41t17 -41t42 -17z" />
    <glyph glyph-name="tilde.case" 
d="M-189 778l4 26q8 52 41.5 82t76.5 30q34 0 77 -23t55 -23q19 0 28.5 11t15.5 36h79l-4 -26q-8 -52 -41.5 -82t-76.5 -30q-34 0 -77 23t-55 23q-19 0 -28.5 -11t-15.5 -36h-79z" />
    <glyph glyph-name="_680" 
d="M-172 295v126h345v-126h-345z" />
    <glyph glyph-name="_681" 
d="M365 647l-650 -665l-81 81l649 665z" />
    <glyph glyph-name="_682" 
d="M176 419l-352 -206v115l352 207v-116z" />
    <glyph glyph-name="_683" 
d="M-212 295v126h425v-126h-425z" />
    <glyph glyph-name="_684" 
d="M-371 519v100h742v-100h-742z" />
    <glyph glyph-name="uni0449.locl" horiz-adv-x="938" 
d="M197 500v-267q0 -119 78 -119q44 0 71 34t29 101v251h137v-267q0 -119 77 -119q44 0 71.5 34t29.5 101v251h137v-341q0 -21 8.5 -30t29.5 -9h44v-243h-123v123h-5q-35 0 -58 18t-23 51q-51 -80 -143 -80q-110 0 -155 92q-21 -44 -65.5 -68t-89.5 -24q-90 0 -138.5 59
t-48.5 162v290h137z" />
    <glyph glyph-name="uni0437.locl" horiz-adv-x="487" 
d="M-13 -108l100 84q49 -74 126 -74q50 0 77.5 26t27.5 72q0 105 -117 105h-60v113h59q46 0 71 23.5t25 65.5q0 37 -22.5 60t-63.5 23q-63 0 -113 -55l-82 82q77 94 210 94q90 0 146 -56t56 -132q0 -103 -74 -154q103 -52 103 -179q0 -94 -64 -151.5t-171 -57.5
q-81 0 -141 30.5t-93 80.5z" />
    <glyph glyph-name="uni0446.locl" horiz-adv-x="643" 
d="M396 500h137v-341q0 -21 8.5 -30t30.5 -9h44v-243h-123v123h-6q-34 0 -57 17.5t-23 51.5v4q-47 -84 -154 -84q-90 0 -141.5 59.5t-51.5 158.5v293h137v-270q0 -55 22.5 -85.5t66.5 -30.5q47 0 77.5 34.5t32.5 100.5v251z" />
    <glyph glyph-name="uni043F.locl" horiz-adv-x="599" 
d="M66 0v500h137v-57q46 68 143 68q90 0 141.5 -59.5t51.5 -158.5v-293h-137v270q0 55 -23 85.5t-65 30.5q-50 0 -80.5 -36t-30.5 -106v-244h-137z" />
    <glyph glyph-name="uni044C.locl" horiz-adv-x="501" 
d="M286 -11h-36q-92 0 -140.5 55t-48.5 126v330h137v-149h88q92 0 141 -55t49 -126t-49 -126t-141 -55zM272 106q74 0 74 64t-74 64h-74v-64q0 -64 74 -64z" />
    <glyph glyph-name="uni0432.locl" horiz-adv-x="563" 
d="M294 -11h-15q-104 0 -162 62.5t-58 166.5v311q0 108 54.5 169t162.5 61q101 0 156 -57t55 -149q0 -107 -63 -155q50 -23 76.5 -70.5t26.5 -110.5q0 -104 -63 -166t-170 -62zM289 110h9q46 0 69 31t23 84q0 54 -24.5 84t-72.5 30h-97v-118q0 -111 93 -111zM196 546v-95h78
q83 0 83 93q0 94 -81 94q-38 0 -59 -23.5t-21 -68.5z" />
    <glyph glyph-name="uni041B.locl" horiz-adv-x="743" 
d="M1 0l306 710h129l307 -710h-152l-220 510l-220 -510h-150z" />
    <glyph glyph-name="uni0448.locl" horiz-adv-x="893" 
d="M197 500v-267q0 -119 78 -119q46 0 73 36t27 106v244h137v-267q0 -119 77 -119q47 0 74 36t27 106v244h137v-500h-137v57q-47 -68 -133 -68q-110 0 -155 92q-21 -44 -65.5 -68t-89.5 -24q-90 0 -138.5 59t-48.5 162v290h137z" />
    <glyph glyph-name="uni0442.locl" horiz-adv-x="893" 
d="M696 0v267q0 119 -78 119q-45 0 -71.5 -34t-28.5 -101v-251h-137v267q0 119 -78 119q-46 0 -73 -36t-27 -106v-244h-137v500h137v-57q47 68 133 68q105 0 155 -92q22 43 66 67.5t89 24.5q89 0 138 -59t49 -162v-290h-137z" />
    <glyph glyph-name="uni0434.locl" horiz-adv-x="617" 
d="M299 130q53 0 90 36t37 92t-37 92t-90 36t-90 -36t-37 -92t37 -92t90 -36zM283 -219q-150 0 -233 80l75 102q63 -62 156 -62q60 0 97 38t37 99v34q-21 -29 -60 -47.5t-85 -18.5q-98 0 -167 73.5t-69 178.5q0 106 69 179.5t167 73.5q47 0 85.5 -18.5t59.5 -48.5v56h137
v-461q0 -129 -74 -193.5t-195 -64.5z" />
    <glyph glyph-name="uni0433.locl" horiz-adv-x="457" 
d="M224 -11q-82 0 -136 46t-54 117q0 62 36.5 99t107.5 56l48 14q49 13 49 43q0 16 -15.5 25t-34.5 9q-50 0 -85 -44l-90 73q59 84 173 84q81 0 133.5 -41.5t54.5 -109.5q1 -59 -34.5 -100.5t-103.5 -59.5l-37 -9q-40 -11 -53.5 -21.5t-13.5 -26.5q0 -18 16 -27t39 -9
q76 0 112 58l94 -80q-64 -96 -206 -96z" />
    <glyph glyph-name="uni0438.locl" horiz-adv-x="588" 
d="M248 -11q-89 0 -138.5 60t-49.5 161v290h137v-267q0 -119 85 -119q48 0 75.5 36t27.5 106v244h137v-500h-137v57q-46 -68 -137 -68z" />
    <glyph glyph-name="uni0414.locl" horiz-adv-x="754" 
d="M20 -148v286h72l220 572h130l220 -572h73v-286h-132v148h-452v-148h-131zM377 498l-135 -360h270z" />
    <glyph glyph-name="uni043A.locl" horiz-adv-x="551" 
d="M393 0l-190 202v-202h-137v750h137v-454l169 204h163l-208 -246l242 -254h-176z" />
    <glyph glyph-name="uni0439.locl" horiz-adv-x="588" 
d="M248 -11q-89 0 -138.5 60t-49.5 161v290h137v-267q0 -119 85 -119q48 0 75.5 36t27.5 106v244h137v-500h-137v57q-46 -68 -137 -68zM291 558q-74 0 -124 48t-50 126v18h90v-18q0 -46 23.5 -70.5t60.5 -24.5t60.5 24.5t23.5 70.5v18h90v-18q0 -78 -50 -126t-124 -48z" />
    <glyph glyph-name="uni0436.locl" horiz-adv-x="824" 
d="M665 0l-184 200v-200h-137v202l-185 -202h-170l232 254l-199 246h159l163 -204v454h137v-451l161 201h159l-200 -246l234 -254h-170z" />
    <glyph glyph-name="uni0431.locl" horiz-adv-x="592" 
d="M68 574q0 83 58.5 129.5t172.5 46.5h181v-120h-185q-43 0 -68 -18t-25 -53t25 -53.5t68 -18.5h17q102 0 173.5 -69.5t71.5 -167.5q0 -110 -75 -185.5t-186 -75.5t-186 75.5t-75 185.5q0 124 94 193q-61 52 -61 131zM295 117q55 0 89.5 34.5t34.5 95.5q0 50 -35.5 85.5
t-90.5 35.5q-58 0 -89.5 -35t-31.5 -86q0 -61 34 -95.5t89 -34.5z" />
    <glyph glyph-name="uni044E.locl" horiz-adv-x="821" 
d="M531 -11q-92 0 -159.5 56.5t-88.5 145.5h-80v-191h-137v750h137v-440h80q18 88 86.5 144.5t161.5 56.5q110 0 182.5 -76t72.5 -185t-72.5 -185t-182.5 -76zM531 117q53 0 85 37.5t32 95.5t-32 95.5t-85 37.5t-84.5 -37t-31.5 -95q0 -59 32 -96.5t84 -37.5z" />
    <glyph glyph-name="uni043B.locl" horiz-adv-x="570" 
d="M1 0l221 500h125l222 -500h-153l-132 320l-132 -320h-151z" />
    <glyph glyph-name="uni044A.locl" horiz-adv-x="583" 
d="M368 -11h-36q-92 0 -140.5 55t-48.5 126v210h-125v120h262v-149h88q92 0 141 -55t49 -126t-49 -126t-141 -55zM428 170q0 64 -74 64h-74v-64q0 -64 74 -64t74 64z" />
    </font>
</defs>
</svg>
